Начать новую тему Ответить на тему
Статистика раздачи
Размер: 304.96 МБ | Добавлен: 26 мар 2019, 20:28 | Скачали: 0
Сидеров: 0  [0 байт/сек]    Личеров: 0  [0 байт/сек]
Пред. тема | След. тема 

Автор
Сообщение

СообщениеДобавлено: 26 мар 2019, 20:28 

Ответить с цитатой 

Cotton Mather — Kontiki

Жанр: Alternatibe Rock, Brit-Pop
Год выпуска диска: 2002
Производитель диска: USA
Аудио кодек: FLAC
Тип рипа: tracks+.cue
Битрейт аудио: lossless
Продолжительность: 40:01
Трэклист:
01 Camp Hill Rail Operator
02 Homefront Cameo
03 Spin My Wheels
04 My Before And After
05 Private Ruth
06 Vegetable Row
07 Aurora Bori Alice
08 Church Of Wilson
09 Lily Dreams On
10 Password
11 Animal Show Drinking Song
12 Prophecy For The Golden Age
13 She's Only Cool
14 Autumn's Birds
Exact Audio Copy V0.99 prebeta 4 from 23. January 2008
EAC extraction logfile from 15. April 2010, 15:44
Cotton Mather / Kon Tiki
Used drive : HP DVD Writer 1140r Adapter: 2 ID: 0
Read mode : Secure
Utilize accurate stream : Yes
Defeat audio cache : No
Make use of C2 pointers : No
Read offset correction : 6
Overread into Lead-In and Lead-Out : No
Fill up missing offset samples with silence : Yes
Delete leading and trailing silent blocks : No
Null samples used in CRC calculations : No
Used interface : Native Win32 interface for Win NT & 2000
Gap handling : Not detected, thus appended to previous track
Used output format : User Defined Encoder
Selected bitrate : 768 kBit/s
Quality : High
Add ID3 tag : No
Command line compressor : C:\Program Files\Exact Audio Copy\FLAC\FLAC.EXE
Additional command line options : -6 -V -T "ARTIST=%a" -T "TITLE=%t" -T "ALBUM=%g" -T "DATE=%y" -T "TRACKNUMBER=%n" -T "GENRE=%m" -T "COMMENT=%e" %s -o %d
TOC of the extracted CD
Track | Start | Length | Start sector | End sector
---------------------------------------------------------
1 | 0:00.00 | 3:21.35 | 0 | 15109
2 | 3:21.35 | 3:10.42 | 15110 | 29401
3 | 6:32.02 | 3:28.43 | 29402 | 45044
4 | 10:00.45 | 2:53.32 | 45045 | 58051
5 | 12:54.02 | 3:03.65 | 58052 | 71841
6 | 15:57.67 | 5:01.28 | 71842 | 94444
7 | 20:59.20 | 2:37.57 | 94445 | 106276
8 | 23:37.02 | 2:00.70 | 106277 | 115346
9 | 25:37.72 | 2:50.35 | 115347 | 128131
10 | 28:28.32 | 3:12.28 | 128132 | 142559
11 | 31:40.60 | 1:16.32 | 142560 | 148291
12 | 32:57.17 | 0:55.45 | 148292 | 152461
13 | 33:52.62 | 2:30.63 | 152462 | 163774
14 | 36:23.50 | 3:37.25 | 163775 | 180074
Track 1
Filename C:\Documents and Settings\HP_Administrator\My Documents\01 Camp Hill Rail Operator.wav
Peak level 98.9 %
Track quality 100.0 %
Test CRC CE181ED5
Copy CRC CE181ED5
Accurately ripped (confidence 3) [2291A4B2]
Copy OK
Track 2
Filename C:\Documents and Settings\HP_Administrator\My Documents\02 Homefront Cameo.wav
Peak level 98.6 %
Track quality 100.0 %
Test CRC 3BBB5D2D
Copy CRC 3BBB5D2D
Accurately ripped (confidence 2) [8F153C19]
Copy OK
Track 3
Filename C:\Documents and Settings\HP_Administrator\My Documents\03 Spin My Wheels.wav
Peak level 97.1 %
Track quality 100.0 %
Test CRC 17229D7C
Copy CRC 17229D7C
Accurately ripped (confidence 2) [9A32E3C8]
Copy OK
Track 4
Filename C:\Documents and Settings\HP_Administrator\My Documents\04 My Before and After.wav
Peak level 98.8 %
Track quality 100.0 %
Test CRC C212303E
Copy CRC C212303E
Accurately ripped (confidence 2) [B7F70DDA]
Copy OK
Track 5
Filename C:\Documents and Settings\HP_Administrator\My Documents\05 Private Ruth.wav
Peak level 98.7 %
Track quality 100.0 %
Test CRC AD1F23FD
Copy CRC AD1F23FD
Accurately ripped (confidence 2) [3C784863]
Copy OK
Track 6
Filename C:\Documents and Settings\HP_Administrator\My Documents\06 Vegetable Row.wav
Peak level 99.5 %
Track quality 100.0 %
Test CRC 30236C41
Copy CRC 30236C41
Accurately ripped (confidence 2) [865221BB]
Copy OK
Track 7
Filename C:\Documents and Settings\HP_Administrator\My Documents\07 Aurora Bori Alice.wav
Peak level 98.5 %
Track quality 100.0 %
Test CRC 22FB8E31
Copy CRC 22FB8E31
Accurately ripped (confidence 2) [39C731E2]
Copy OK
Track 8
Filename C:\Documents and Settings\HP_Administrator\My Documents\08 Church of Wilson.wav
Peak level 98.3 %
Track quality 100.0 %
Test CRC D940339F
Copy CRC D940339F
Accurately ripped (confidence 2) [3CED128C]
Copy OK
Track 9
Filename C:\Documents and Settings\HP_Administrator\My Documents\09 Lily Dreams On.wav
Peak level 97.4 %
Track quality 100.0 %
Test CRC 21CACD98
Copy CRC 21CACD98
Accurately ripped (confidence 2) [7BB16119]
Copy OK
Track 10
Filename C:\Documents and Settings\HP_Administrator\My Documents\10 Password.wav
Peak level 98.8 %
Track quality 100.0 %
Test CRC A3DD22A2
Copy CRC A3DD22A2
Accurately ripped (confidence 2) [A25F97E3]
Copy OK
Track 11
Filename C:\Documents and Settings\HP_Administrator\My Documents\11 Animal Show Drinking Song.wav
Peak level 98.4 %
Track quality 100.0 %
Test CRC 53547E4A
Copy CRC 53547E4A
Accurately ripped (confidence 2) [B3C127F8]
Copy OK
Track 12
Filename C:\Documents and Settings\HP_Administrator\My Documents\12 Prophecy for the Golden Age.wav
Peak level 97.4 %
Track quality 100.0 %
Test CRC 1EA0A356
Copy CRC 1EA0A356
Accurately ripped (confidence 2) [38C63A4A]
Copy OK
Track 13
Filename C:\Documents and Settings\HP_Administrator\My Documents\13 She's Only Cool.wav
Peak level 99.4 %
Track quality 100.0 %
Test CRC 1D3852A1
Copy CRC 1D3852A1
Accurately ripped (confidence 2) [D836CB2E]
Copy OK
Track 14
Filename C:\Documents and Settings\HP_Administrator\My Documents\14 Autumn's Birds.wav
Peak level 98.5 %
Track quality 100.0 %
Test CRC 53EE6CC7
Copy CRC 53EE6CC7
Accurately ripped (confidence 2) [C6D031B3]
Copy OK
All tracks accurately ripped
No errors occurred
End of status report
REM GENRE Pop
REM DISCID BD09610E
REM COMMENT "ExactAudioCopy v0.99pb4"
PERFORMER "Cotton Mather"
TITLE "Kon Tiki"
FILE "01 Camp Hill Rail Operator.wav" WAVE
TRACK 01 AUDIO
TITLE "Camp Hill Rail Operator"
PERFORMER "Cotton Mather"
INDEX 01 00:00:00
FILE "02 Homefront Cameo.wav" WAVE
TRACK 02 AUDIO
TITLE "Homefront Cameo"
PERFORMER "Cotton Mather"
INDEX 01 00:00:00
FILE "03 Spin My Wheels.wav" WAVE
TRACK 03 AUDIO
TITLE "Spin My Wheels"
PERFORMER "Cotton Mather"
INDEX 01 00:00:00
TRACK 04 AUDIO
TITLE "My Before and After"
PERFORMER "Cotton Mather"
INDEX 00 03:28:10
FILE "04 My Before and After.wav" WAVE
INDEX 01 00:00:00
TRACK 05 AUDIO
TITLE "Private Ruth"
PERFORMER "Cotton Mather"
INDEX 00 02:51:72
FILE "05 Private Ruth.wav" WAVE
INDEX 01 00:00:00
TRACK 06 AUDIO
TITLE "Vegetable Row"
PERFORMER "Cotton Mather"
INDEX 00 03:02:28
FILE "06 Vegetable Row.wav" WAVE
INDEX 01 00:00:00
TRACK 07 AUDIO
TITLE "Aurora Bori Alice"
PERFORMER "Cotton Mather"
INDEX 00 04:58:50
FILE "07 Aurora Bori Alice.wav" WAVE
INDEX 01 00:00:00
TRACK 08 AUDIO
TITLE "Church of Wilson"
PERFORMER "Cotton Mather"
INDEX 00 02:37:07
FILE "08 Church of Wilson.wav" WAVE
INDEX 01 00:00:00
TRACK 09 AUDIO
TITLE "Lily Dreams On"
PERFORMER "Cotton Mather"
INDEX 00 01:59:65
FILE "09 Lily Dreams On.wav" WAVE
INDEX 01 00:00:00
TRACK 10 AUDIO
TITLE "Password"
PERFORMER "Cotton Mather"
INDEX 00 02:48:10
FILE "10 Password.wav" WAVE
INDEX 01 00:00:00
TRACK 11 AUDIO
TITLE "Animal Show Drinking Song"
PERFORMER "Cotton Mather"
INDEX 00 03:11:13
FILE "11 Animal Show Drinking Song.wav" WAVE
INDEX 01 00:00:00
FILE "12 Prophecy for the Golden Age.wav" WAVE
TRACK 12 AUDIO
TITLE "Prophecy for the Golden Age"
PERFORMER "Cotton Mather"
INDEX 01 00:00:00
FILE "13 She's Only Cool.wav" WAVE
TRACK 13 AUDIO
TITLE "She's Only Cool"
PERFORMER "Cotton Mather"
INDEX 01 00:00:00
TRACK 14 AUDIO
TITLE "Autumn's Birds"
PERFORMER "Cotton Mather"
INDEX 00 02:29:30
FILE "14 Autumn's Birds.wav" WAVE
INDEX 01 00:00:00
Правила, инструкции, FAQ!!!
Торрент  Добавлен [26 мар 2019, 20:28] Скачать торрент Магнет ссылка
Скачать торрент
[ Размер 13.44 КБ / Просмотров 7 ]

Статус
Проверен 
 
Размер  304.96 МБ
Приватный: Нет (DHT включён)
.torrent скачан  0
 


     Отправить личное сообщение
   
Страница 1 из 1
Показать сообщения за:  Поле сортировки  
Начать новую тему Ответить на тему


Сейчас этот форум просматривают: нет зарегистрированных пользователей и гости: 0


Вы не можете начинать темы
Вы не можете отвечать на сообщения
Вы не можете редактировать свои сообщения
Вы не можете удалять свои сообщения
Вы не можете добавлять вложения

Перейти:  
cron