Начать новую тему Ответить на тему
Статистика раздачи
Размер: 283.83 МБ | Добавлен: 26 мар 2019, 19:36 | Скачали: 0
Сидеров: 6  [0 байт/сек]    Личеров: 0  [0 байт/сек]
Пред. тема | След. тема 

Автор
Сообщение

СообщениеДобавлено: 26 мар 2019, 19:36 

Ответить с цитатой 

Lustra / Left for Dead
Жанр: Pop-Punk
Год издания диска: 2005
Страна: USA
Аудиокодек: FLAC (*.flac)
Тип рипа: tracks+.cue
Битрейт аудио: lossless
Продолжительность: 00:38:35
Источник (релизер): What.cd
Наличие сканов в содержимом раздачи: нет
Треклист:
01. Porno Getaway (02:01)
02. Scotty Doesn't Know (02:55)
03. Standing at Your Grave (04:31)
04. Stay Awake (02:49)
05. Sometimes (04:01)
06. Sniffing Cigarettes (03:02)
07. Scrambled (05:57)
08. Coming In Stereo (03:17)
09. Mark Foo (03:08)
10. Roll (03:05)
11. Papillion (03:43)
Код:
EAC extraction logfile from 24. May 2006, 2:57 for CD
Lustra / Left For Dead
Used drive  : SAMSUNG CD-R/RW SW-248F   Adapter: 1  ID: 1
Read mode   : Secure with NO C2, accurate stream, disable cache
Read offset correction : 97
Overread into Lead-In and Lead-Out : No
Used output format : C:\Program Files\Exact Audio Copy\flac.exe   (User Defined Encoder)
                     32 kBit/s
                     Additional command line options : -V -8 -T "artist=%a" -T "title=%t" -T "album=%g" -T "date=%y" -T "tracknumber=%n" -T "genre=%m" %s
Other options      :
    Fill up missing offset samples with silence : Yes
    Delete leading and trailing silent blocks : No
    Installed external ASPI interface
Track  1
     Filename F:\My Flac Uploads\Lustra - Left For Dead\01 - Porno Getaway.wav
     Pre-gap length  0:00:02.00
     Peak level 81.6 %
     Track quality 100.0 %
     Test CRC 1559D809
     Copy CRC 1559D809
     Copy OK
Track  2
     Filename F:\My Flac Uploads\Lustra - Left For Dead\02 - Scotty Doesn't Know.wav
     Peak level 98.7 %
     Track quality 100.0 %
     Test CRC F47027AF
     Copy CRC F47027AF
     Copy OK
Track  3
     Filename F:\My Flac Uploads\Lustra - Left For Dead\03 - Standing At Your Grave.wav
     Peak level 99.8 %
     Track quality 99.9 %
     Test CRC EEFD7FBB
     Copy CRC EEFD7FBB
     Copy OK
Track  4
     Filename F:\My Flac Uploads\Lustra - Left For Dead\04 - Stay Awake.wav
     Peak level 99.8 %
     Track quality 100.0 %
     Test CRC E07B4329
     Copy CRC E07B4329
     Copy OK
Track  5
     Filename F:\My Flac Uploads\Lustra - Left For Dead\05 - Sometimes.wav
     Peak level 99.8 %
     Track quality 100.0 %
     Test CRC 426D8F33
     Copy CRC 426D8F33
     Copy OK
Track  6
     Filename F:\My Flac Uploads\Lustra - Left For Dead\06 - Sniffing Cigarettes.wav
     Peak level 99.8 %
     Track quality 100.0 %
     Test CRC 3DC8BB45
     Copy CRC 3DC8BB45
     Copy OK
Track  7
     Filename F:\My Flac Uploads\Lustra - Left For Dead\07 - Scrambled.wav
     Peak level 99.8 %
     Track quality 100.0 %
     Test CRC D7124E01
     Copy CRC D7124E01
     Copy OK
Track  8
     Filename F:\My Flac Uploads\Lustra - Left For Dead\08 - Coming  In Stereo.wav
     Peak level 99.8 %
     Track quality 100.0 %
     Test CRC 6FAD551C
     Copy CRC 6FAD551C
     Copy OK
Track  9
     Filename F:\My Flac Uploads\Lustra - Left For Dead\09 - Mark Foo.wav
     Peak level 99.8 %
     Track quality 100.0 %
     Test CRC D35E7A05
     Copy CRC D35E7A05
     Copy OK
Track 10
     Filename F:\My Flac Uploads\Lustra - Left For Dead\10 - Roll.wav
     Peak level 99.8 %
     Track quality 100.0 %
     Test CRC 838C4416
     Copy CRC 838C4416
     Copy OK
Track 11
     Filename F:\My Flac Uploads\Lustra - Left For Dead\11 - Pahillion.wav
     Peak level 99.8 %
     Track quality 99.9 %
     Test CRC 69C65DE6
     Copy CRC 69C65DE6
     Copy OK
No errors occured
End of status report
Код:
REM GENRE Rock
REM DATE 2005
REM DISCID 91090B0B
REM COMMENT "ExactAudioCopy v0.95b3"
PERFORMER "Lustra"
TITLE "Left For Dead"
FILE "01 - Porno Getaway.wav" WAVE
  TRACK 01 AUDIO
    TITLE "Porno Getaway"
    PERFORMER "Lustra"
    INDEX 01 00:00:00
FILE "02 - Scotty Doesn't Know.wav" WAVE
  TRACK 02 AUDIO
    TITLE "Scotty Doesn't Know"
    PERFORMER "Lustra"
    INDEX 01 00:00:00
FILE "03 - Standing At Your Grave.wav" WAVE
  TRACK 03 AUDIO
    TITLE "Standing At Your Grave"
    PERFORMER "Lustra"
    INDEX 01 00:00:00
FILE "04 - Stay Awake.wav" WAVE
  TRACK 04 AUDIO
    TITLE "Stay Awake"
    PERFORMER "Lustra"
    INDEX 01 00:00:00
FILE "05 - Sometimes.wav" WAVE
  TRACK 05 AUDIO
    TITLE "Sometimes"
    PERFORMER "Lustra"
    INDEX 01 00:00:00
FILE "06 - Sniffing Cigarettes.wav" WAVE
  TRACK 06 AUDIO
    TITLE "Sniffing Cigarettes"
    PERFORMER "Lustra"
    INDEX 01 00:00:00
FILE "07 - Scrambled.wav" WAVE
  TRACK 07 AUDIO
    TITLE "Scrambled"
    PERFORMER "Lustra"
    INDEX 01 00:00:00
FILE "08 - Coming  In Stereo.wav" WAVE
  TRACK 08 AUDIO
    TITLE "Coming  In Stereo"
    PERFORMER "Lustra"
    INDEX 01 00:00:00
FILE "09 - Mark Foo.wav" WAVE
  TRACK 09 AUDIO
    TITLE "Mark Foo"
    PERFORMER "Lustra"
    INDEX 01 00:00:00
FILE "10 - Roll.wav" WAVE
  TRACK 10 AUDIO
    TITLE "Roll"
    PERFORMER "Lustra"
    INDEX 01 00:00:00
FILE "11 - Pahillion.wav" WAVE
  TRACK 11 AUDIO
    TITLE "Pahillion"
    PERFORMER "Lustra"
    INDEX 01 00:00:00
Правила, инструкции, FAQ!!!
Торрент  Добавлен [26 мар 2019, 19:36] Скачать торрент Магнет ссылка
Скачать торрент
[ Размер 2.61 КБ / Просмотров 20 ]

Статус
Проверен 
 
Размер  283.83 МБ
Приватный: Нет (DHT включён)
.torrent скачан  0
 


     Отправить личное сообщение
   
Страница 1 из 1
Показать сообщения за:  Поле сортировки  
Начать новую тему Ответить на тему


Сейчас этот форум просматривают: нет зарегистрированных пользователей и гости: 0


Вы не можете начинать темы
Вы не можете отвечать на сообщения
Вы не можете редактировать свои сообщения
Вы не можете удалять свои сообщения
Вы не можете добавлять вложения

Перейти:  
cron