Начать новую тему Ответить на тему
Статистика раздачи
Размер: 1.03 ГБ | Добавлен: 26 июн 2020, 19:20 | Скачали: 0
Сидеров: 0  [0 байт/сек]    Личеров: 0  [0 байт/сек]
Пред. тема | След. тема 

Автор
Сообщение

СообщениеДобавлено: 26 июн 2020, 19:20 

Ответить с цитатой 

Venusa XX, Volume 2
Жанр: all electro (EBM / Industrial / synth pop / IDM...etc.)
Страна-производитель диска: Belgium
Год издания диска: 2002
Издатель (лейбл): Alfa Matrix
Номер по каталогу: am-1013DCD
Аудиокодек: FLAC (*.flac)
Тип рипа: image+.cue
Битрейт аудио: lossless
Продолжительность Disc1: 1:14:07.00;
Продолжительность Disc2: 1:13:40.36
Источник (релизер): Физический носитель
Наличие сканов в содержимом раздачи: да
01. Client - Client (Original mix) [3:12]
02. Pzycho Bitch - Big Lover (Short Cut) [4:14]
03. Niowt - Loverboy (Dance mix) [3:46]
04. Backlash - Blind (Radio Edit) [4:26]
05. Spray - Heatwavers (7' mix) [3:07]
06. Regenerator - Cauterize [5:05]
07. Chandeen - My World Depends On You (Neikka RPM mix) [5:28]
08. Mnemonic (feat. Tekita) - A Day On My Own [5:08]
09. Hungry Lucy - Storm [5:00]
10. Bel Canto - Ladonia [5:15]
11. Frogpad - Lessons Of Faith (Bifrost mix) [4:16]
12. Male Or Female - $In$ [5:53]
13. Magenta - All Over (Epsilon Minus mix) [6:43]
14. Chiasm - Phobic [4:38]
15. Inertia - Fly (Bad Cat mix) [4:26]
16. L'Ame Immortelle - Judgement (Epsilon Minus mix) [3:31]
01. Lunascape - Second Skin (Hungry Lucy mix) [4:54]
02. Theatre Of Tragedy - Envision (Conetik mix) [4:00]
03. Transmutator feat. Chris G. - The_Lover.2 (Radio mix) [5:27]
04. Implant - Gateway [5:08]
05. System 22 - Illuminate (Radio Edit) [3:35]
06. Sabotage? - Who Am I? (At All mix) [4:59]
07. Nebula-H feat. Eaven - Twilight Zone [3:26]
08. The Azoic - Conflict [4:58]
09. Aiboforcen - Give Me These Wings (Flight mix) [4:38]
10. Massiv In Mensch - Offensivshock (Epsilon Minus mix) [5:35]
11. In Strict Confidence - Engelstaub (Implant mix) [5:32]
12. Infrastructure - Alpha Plus [4:31]
13. Krometekk - I Adore U [4:30]
14. Neikka RPM - Closning In [3:16]
15. Plastic Noise Experience - Gar Nichts [4:00]
16. Epsilon Minus - Ocean Floor [5:12]
Код:
Exact Audio Copy V0.99 prebeta 5 from 4. May 2009
Отчёт EAC об извлечении, выполненном 17. августа 2010, 16:40
Various /  Venusa.XX Part II
Дисковод: Optiarc DVD RW AD-7173A   Adapter: 0  ID: 0
Режим чтения                 : Достоверность
Использование точного потока : Да
Отключение кэша аудио        : Да
Использование указателей C2  : Нет
Коррекция смещения при чтении                     : 48
Способность читать области Lead-in и Lead-out     : Нет
Заполнение пропущенных сэмплов тишиной            : Да
Удаление блоков с тишиной в начале и конце        : Нет
При вычислениях CRC использовались нулевые сэмплы : Да
Интерфейс                                         : Установленный внешний ASPI-интерфейс
Выходной формат          : Пользовательский кодировщик
Выбранный битрейт        : 1024 kBit/s
Качество                 : Высокий
Добавление ID3-тэга      : Нет
Утилита сжатия           : C:\Program Files\Exact Audio Copy\flac.exe
Дополнительные параметры : -6 -V -T "ARTIST=%a" -T "TITLE=%t" -T "ALBUM=%g" -T "DATE=%y" -T "TRACKNUMBER=%n" -T "GENRE=%m" -T "COMMENT=%e" %s -o %d
TOC извлечённого CD
     Трек |   Старт  | Длительность | Начальный сектор | Конечный сектор
    ---------------------------------------------------------------------
       1  |  0:00.00 |    3:12.20   |           0      |      14419
       2  |  3:12.20 |    4:14.02   |       14420      |      33471
       3  |  7:26.22 |    3:45.72   |       33472      |      50418
       4  | 11:12.19 |    4:25.41   |       50419      |      70334
       5  | 15:37.60 |    3:07.26   |       70335      |      84385
       6  | 18:45.11 |    5:04.67   |       84386      |     107252
       7  | 23:50.03 |    5:28.28   |      107253      |     131880
       8  | 29:18.31 |    5:08.14   |      131881      |     154994
       9  | 34:26.45 |    4:59.46   |      154995      |     177465
      10  | 39:26.16 |    5:15.04   |      177466      |     201094
      11  | 44:41.20 |    4:15.73   |      201095      |     220292
      12  | 48:57.18 |    5:52.48   |      220293      |     246740
      13  | 54:49.66 |    6:42.38   |      246741      |     276928
      14  | 61:32.29 |    4:37.71   |      276929      |     297774
      15  | 66:10.25 |    4:25.49   |      297775      |     317698
      16  | 70:35.74 |    3:31.01   |      317699      |     333524
Характеристики диапазона извлечения и сообщения об ошибках
Выбранный диапазон
     Имя файла H:\СКАЧКА\FLAC\1 TORRENT\Various -  Venusa.XX Part II.wav
     Пиковый уровень 100.0 %
     Качество диапазона 99.9 %
     CRC теста 1892A122
     CRC копии 1892A122
     Копирование... OK
Ошибок не произошло
AccurateRip: сводка
Трек  1  нет в базе данных
Трек  2  точное извлечение (доверие 2)  [841D23F9]
Трек  3  точное извлечение (доверие 2)  [B8F3D802]
Трек  4  точное извлечение (доверие 2)  [437EF469]
Трек  5  точное извлечение (доверие 2)  [CFAC413B]
Трек  6  точное извлечение (доверие 2)  [2E21A388]
Трек  7  точное извлечение (доверие 2)  [4B1166CC]
Трек  8  точное извлечение (доверие 2)  [250EAC9B]
Трек  9  точное извлечение (доверие 2)  [3991EE11]
Трек 10  точное извлечение (доверие 2)  [09C2E614]
Трек 11  точное извлечение (доверие 2)  [E70ABEB8]
Трек 12  точное извлечение (доверие 2)  [D4CDF0EE]
Трек 13  точное извлечение (доверие 2)  [8F270A99]
Трек 14  точное извлечение (доверие 2)  [BB8AA328]
Трек 15  точное извлечение (доверие 2)  [F6FB2001]
Трек 16  точное извлечение (доверие 2)  [35A28229]
15 трек(и) скопированы точно
 1 трек(и) не содержатся в базе AccurateRip
Некоторые треки не прошли проверку на точность
Конец отчёта
Код:
Exact Audio Copy V0.99 prebeta 5 from 4. May 2009
Отчёт EAC об извлечении, выполненном 18. августа 2010, 16:30
Various / Venusa.XX Part II
Дисковод: Optiarc DVD RW AD-7173A   Adapter: 0  ID: 0
Режим чтения                 : Достоверность
Использование точного потока : Да
Отключение кэша аудио        : Да
Использование указателей C2  : Нет
Коррекция смещения при чтении                     : 48
Способность читать области Lead-in и Lead-out     : Нет
Заполнение пропущенных сэмплов тишиной            : Да
Удаление блоков с тишиной в начале и конце        : Нет
При вычислениях CRC использовались нулевые сэмплы : Да
Интерфейс                                         : Установленный внешний ASPI-интерфейс
Выходной формат          : Пользовательский кодировщик
Выбранный битрейт        : 1024 kBit/s
Качество                 : Высокий
Добавление ID3-тэга      : Нет
Утилита сжатия           : C:\Program Files\Exact Audio Copy\flac.exe
Дополнительные параметры : -6 -V -T "ARTIST=%a" -T "TITLE=%t" -T "ALBUM=%g" -T "DATE=%y" -T "TRACKNUMBER=%n" -T "GENRE=%m" -T "COMMENT=%e" %s -o %d
TOC извлечённого CD
     Трек |   Старт  | Длительность | Начальный сектор | Конечный сектор
    ---------------------------------------------------------------------
       1  |  0:00.00 |    4:54.10   |           0      |      22059
       2  |  4:54.10 |    3:59.62   |       22060      |      40046
       3  |  8:53.72 |    5:27.06   |       40047      |      64577
       4  | 14:21.03 |    5:07.68   |       64578      |      87670
       5  | 19:28.71 |    3:35.25   |       87671      |     103820
       6  | 23:04.21 |    4:59.02   |      103821      |     126247
       7  | 28:03.23 |    3:25.50   |      126248      |     141672
       8  | 31:28.73 |    4:57.69   |      141673      |     164016
       9  | 36:26.67 |    4:37.62   |      164017      |     184853
      10  | 41:04.54 |    5:35.17   |      184854      |     209995
      11  | 46:39.71 |    5:31.68   |      209996      |     234888
      12  | 52:11.64 |    4:30.71   |      234889      |     255209
      13  | 56:42.60 |    4:29.53   |      255210      |     275437
      14  | 61:12.38 |    3:16.25   |      275438      |     290162
      15  | 64:28.63 |    3:59.45   |      290163      |     308132
      16  | 68:28.33 |    5:12.03   |      308133      |     331535
Характеристики диапазона извлечения и сообщения об ошибках
Выбранный диапазон
     Имя файла H:\СКАЧКА\FLAC\1 TORRENT\Various - Venusa.XX Part II.wav
     Пиковый уровень 100.0 %
     Качество диапазона 100.0 %
     CRC теста 678F15E2
     CRC копии 678F15E2
     Копирование... OK
Ошибок не произошло
AccurateRip: сводка
Трек  1  точное извлечение (доверие 1)  [A5C32DF3]
Трек  2  точное извлечение (доверие 1)  [E4B80E30]
Трек  3  точное извлечение (доверие 1)  [F83310D3]
Трек  4  точное извлечение (доверие 1)  [784BE9FD]
Трек  5  точное извлечение (доверие 1)  [CC129633]
Трек  6  точное извлечение (доверие 1)  [6EE7BDB4]
Трек  7  точное извлечение (доверие 1)  [83D8E3CA]
Трек  8  точное извлечение (доверие 1)  [091A2881]
Трек  9  точное извлечение (доверие 1)  [5B65BE5C]
Трек 10  точное извлечение (доверие 1)  [5EEB01B0]
Трек 11  точное извлечение (доверие 1)  [7A2551B4]
Трек 12  точное извлечение (доверие 1)  [096239FF]
Трек 13  точное извлечение (доверие 1)  [6373571E]
Трек 14  точное извлечение (доверие 1)  [5F84913F]
Трек 15  точное извлечение (доверие 1)  [2555457C]
Трек 16  точное извлечение (доверие 1)  [CD43D14C]
Все треки извлечены точно
Конец отчёта
Правила, инструкции, FAQ!!!
Торрент  Добавлен [26 июн 2020, 19:20] Скачать торрент Магнет ссылка
Скачать торрент
[ Размер 11.65 КБ / Просмотров 11 ]

Статус
Проверен 
 
Размер  1.03 ГБ
Приватный: Нет (DHT включён)
.torrent скачан  0
 


     Отправить личное сообщение
   
Страница 1 из 1
Показать сообщения за:  Поле сортировки  
Начать новую тему Ответить на тему


Сейчас этот форум просматривают: нет зарегистрированных пользователей и гости: 0


Вы не можете начинать темы
Вы не можете отвечать на сообщения
Вы не можете редактировать свои сообщения
Вы не можете удалять свои сообщения
Вы не можете добавлять вложения

Перейти:  
cron