Начать новую тему Ответить на тему
Статистика раздачи
Размер: 1 ГБ | Добавлен: 26 июн 2020, 19:20 | Скачали: 0
Сидеров: 0  [0 байт/сек]    Личеров: 0  [0 байт/сек]
Пред. тема | След. тема 

Автор
Сообщение

СообщениеДобавлено: 26 июн 2020, 19:20 

Ответить с цитатой 

Venusa XX, Volume 1
Жанр: all electro (EBM / Industrial / synth pop / IDM...etc.)
Страна-производитель диска: Germany
Год издания диска: 2001
Издатель (лейбл): Triton
Номер по каталогу: TRITON 38
Аудиокодек: FLAC (*.flac)
Тип рипа: image+.cue
Битрейт аудио: lossless
Продолжительность Disc1: 1:13:12.49;
Продолжительность Disc2: 1:13:44.51
Источник (релизер): Физический носитель
Наличие сканов в содержимом раздачи: да
01. Haujobb feat. Vanessa Briggs - Overflow (Red Sparrow mix) [4:39]
02. Infrastructure - An Eye For An Eye [3:36]
03. Technoir - Blaze [3:43]
04. Das Kombinat - Das Netz [5:43]
05. Sara Noxx - In My Fingers [4:09]
06. Hexedene - Everything And Nothign (Fiction 8 mix) [4:52]
07. NCC - Weiteck [4:50]
08. Aiboforcen - Twilight World [4:25]
09. Regenerator - Drug [4:16]
10. Paradoxx - Romantic [4:40]
11. The Azoic - Progression [4:29]
12. Sobriquet - Xls [4:33]
13. Internal - Perfectionist Attitude (Funker Vogt mix) [4:19]
14. Distorted Reality - Super Crush [4:09]
15. Sadovaja - Trademark (Elasmo mix) [3:16]
16. Neox - Lovesong [3:00]
17. In The Nursery - Hymn Noir [4:33]
01. Neverwood - Sky (Indian mix) [3:43]
02. La Floa Maldita - Secrets & Dreams [3:16]
03. Claire Voyant - Iolite (Trancelite remix by Francis A. Preve) [5:53]
04. Transmutator - Auto-Drip Grind [5:16]
05. Dia - Heat [Candy Strip remix] [3:54]
06. Collide - Wings Of Steel [5:38]
07. She - Secrets [3:38]
08. Hungry Lucy - Grave (Lucy's mix) [4:03]
09. Scarlet Life - Vamona [4:39]
10. No Comment - Capture [4:49]
11. Celluloïde - Wounds Of Love (Classic Synthpop Edit) [3:53]
12. Attic Base - In Between [4:24]
13. Fiction 8 - Somnabule [4:00]
14. Sieze - Victim [5:05]
15. Deep Red - Spirits Of the Past (Lost Tribes mix) [5:48]
16. Illumna - The Haunted [5:47]
Код:
Exact Audio Copy V0.99 prebeta 5 from 4. May 2009
Отчёт EAC об извлечении, выполненном 12. июня 2010, 13:58
Various Artists / Venusa XX Volume 1
Дисковод: Optiarc DVD RW AD-7173A   Adapter: 0  ID: 0
Режим чтения                 : Достоверность
Использование точного потока : Да
Отключение кэша аудио        : Да
Использование указателей C2  : Нет
Коррекция смещения при чтении                     : 48
Способность читать области Lead-in и Lead-out     : Нет
Заполнение пропущенных сэмплов тишиной            : Да
Удаление блоков с тишиной в начале и конце        : Нет
При вычислениях CRC использовались нулевые сэмплы : Да
Интерфейс                                         : Установленный внешний ASPI-интерфейс
Выходной формат          : Пользовательский кодировщик
Выбранный битрейт        : 1024 kBit/s
Качество                 : Высокий
Добавление ID3-тэга      : Нет
Утилита сжатия           : C:\Program Files\Exact Audio Copy\flac.exe
Дополнительные параметры : -6 -V -T "ARTIST=%a" -T "TITLE=%t" -T "ALBUM=%g" -T "DATE=%y" -T "TRACKNUMBER=%n" -T "GENRE=%m" -T "COMMENT=%e" %s -o %d
TOC извлечённого CD
     Трек |   Старт  | Длительность | Начальный сектор | Конечный сектор
    ---------------------------------------------------------------------
       1  |  0:00.00 |    4:38.52   |           0      |      20901
       2  |  4:38.52 |    3:36.28   |       20902      |      37129
       3  |  8:15.05 |    3:43.34   |       37130      |      53888
       4  | 11:58.39 |    5:42.58   |       53889      |      79596
       5  | 17:41.22 |    4:09.20   |       79597      |      98291
       6  | 21:50.42 |    4:52.07   |       98292      |     120198
       7  | 26:42.49 |    4:49.51   |      120199      |     141924
       8  | 31:32.25 |    4:24.63   |      141925      |     161787
       9  | 35:57.13 |    4:15.46   |      161788      |     180958
      10  | 40:12.59 |    4:39.38   |      180959      |     201921
      11  | 44:52.22 |    4:29.35   |      201922      |     222131
      12  | 49:21.57 |    4:33.30   |      222132      |     242636
      13  | 53:55.12 |    4:19.01   |      242637      |     262062
      14  | 58:14.13 |    4:09.28   |      262063      |     280765
      15  | 62:23.41 |    3:16.35   |      280766      |     295500
      16  | 65:40.01 |    2:59.59   |      295501      |     308984
      17  | 68:39.60 |    4:32.64   |      308985      |     329448
Характеристики диапазона извлечения и сообщения об ошибках
Выбранный диапазон
     Имя файла C:\Documents and Settings\Евгений.COMPUTER-88865C\Мои документы\Моя музыка\Various Artists - Venusa XX Volume 1.wav
     Пиковый уровень 96.6 %
     Качество диапазона 99.9 %
     CRC теста FFB6226B
     CRC копии FFB6226B
     Копирование... OK
Ошибок не произошло
AccurateRip: сводка
Трек  1  точное извлечение (доверие 3)  [AF49FE6E]
Трек  2  точное извлечение (доверие 3)  [8CF484B3]
Трек  3  точное извлечение (доверие 3)  [A705533A]
Трек  4  точное извлечение (доверие 3)  [A62F114D]
Трек  5  точное извлечение (доверие 3)  [6B9EE547]
Трек  6  точное извлечение (доверие 3)  [AD86234E]
Трек  7  точное извлечение (доверие 3)  [073C67DB]
Трек  8  точность не определена (достоверность 3)  [0ED5C10B], AccurateRip вернул [8029C10B]
Трек  9  точное извлечение (доверие 3)  [3BAC0776]
Трек 10  точное извлечение (доверие 3)  [42A1D4A8]
Трек 11  точность не определена (достоверность 3)  [F8B7A48C], AccurateRip вернул [4CA6C2F3]
Трек 12  точность не определена (достоверность 3)  [FF4D4609], AccurateRip вернул [23401321]
Трек 13  точное извлечение (доверие 3)  [F424DEE9]
Трек 14  точное извлечение (доверие 3)  [542FFBC7]
Трек 15  точность не определена (достоверность 3)  [16AF2285], AccurateRip вернул [245AC900]
Трек 16  точность не определена (достоверность 3)  [3E11B5D2], AccurateRip вернул [472B69A4]
Трек 17  точность не определена (достоверность 3)  [4A8D7756], AccurateRip вернул [95C9CBAD]
11 трек(и) скопированы точно
 6 трек(и) не удалось проверить на точность
Некоторые треки не прошли проверку на точность
Конец отчёта
Код:
Exact Audio Copy V0.99 prebeta 5 from 4. May 2009
Отчёт EAC об извлечении, выполненном 12. июня 2010, 9:25
Various / Venusa XX, Volume 1
Дисковод: Optiarc DVD RW AD-7173A   Adapter: 0  ID: 0
Режим чтения                 : Достоверность
Использование точного потока : Да
Отключение кэша аудио        : Да
Использование указателей C2  : Нет
Коррекция смещения при чтении                     : 48
Способность читать области Lead-in и Lead-out     : Нет
Заполнение пропущенных сэмплов тишиной            : Да
Удаление блоков с тишиной в начале и конце        : Нет
При вычислениях CRC использовались нулевые сэмплы : Да
Интерфейс                                         : Установленный внешний ASPI-интерфейс
Выходной формат          : Пользовательский кодировщик
Выбранный битрейт        : 1024 kBit/s
Качество                 : Высокий
Добавление ID3-тэга      : Нет
Утилита сжатия           : C:\Program Files\Exact Audio Copy\Flac\flac.exe
Дополнительные параметры : -6 -V -T "ARTIST=%a" -T "TITLE=%t" -T "ALBUM=%g" -T "DATE=%y" -T "TRACKNUMBER=%n" -T "GENRE=%m" -T "COMMENT=%e" %s -o %d
TOC извлечённого CD
     Трек |   Старт  | Длительность | Начальный сектор | Конечный сектор
    ---------------------------------------------------------------------
       1  |  0:00.00 |    3:43.05   |           0      |      16729
       2  |  3:43.05 |    3:15.49   |       16730      |      31403
       3  |  6:58.54 |    5:52.60   |       31404      |      57863
       4  | 12:51.39 |    5:15.64   |       57864      |      81552
       5  | 18:07.28 |    3:54.30   |       81553      |      99132
       6  | 22:01.58 |    5:37.51   |       99133      |     124458
       7  | 27:39.34 |    3:37.39   |      124459      |     140772
       8  | 31:16.73 |    4:02.69   |      140773      |     158991
       9  | 35:19.67 |    4:39.30   |      158992      |     179946
      10  | 39:59.22 |    4:48.50   |      179947      |     201596
      11  | 44:47.72 |    3:52.66   |      201597      |     219062
      12  | 48:40.63 |    4:24.17   |      219063      |     238879
      13  | 53:05.05 |    3:59.40   |      238880      |     256844
      14  | 57:04.45 |    5:05.20   |      256845      |     279739
      15  | 62:09.65 |    5:47.44   |      279740      |     305808
      16  | 67:57.34 |    5:47.17   |      305809      |     331850
Характеристики диапазона извлечения и сообщения об ошибках
Выбранный диапазон
     Имя файла C:\Documents and Settings\Евгений.COMPUTER-88865C\Мои документы\Моя музыка\Various - Venusa XX, Volume 1.wav
     Пиковый уровень 97.6 %
     Качество диапазона 99.9 %
     CRC теста 8A229CED
     CRC копии 8A229CED
     Копирование... OK
Ошибок не произошло
AccurateRip: сводка
Трек  1  точное извлечение (доверие 3)  [83EEEDAE]
Трек  2  точное извлечение (доверие 3)  [5AA1E4A7]
Трек  3  точное извлечение (доверие 3)  [CD722D57]
Трек  4  точное извлечение (доверие 3)  [2C71E76C]
Трек  5  точное извлечение (доверие 3)  [4D4923E8]
Трек  6  точное извлечение (доверие 3)  [9C7D5F86]
Трек  7  точное извлечение (доверие 3)  [2E077AD5]
Трек  8  точное извлечение (доверие 3)  [0702AEE1]
Трек  9  точное извлечение (доверие 3)  [72E48639]
Трек 10  точное извлечение (доверие 3)  [1A8DBEC9]
Трек 11  точное извлечение (доверие 3)  [3F546E8F]
Трек 12  точное извлечение (доверие 3)  [ECF301FE]
Трек 13  точное извлечение (доверие 3)  [4E5C56A5]
Трек 14  точное извлечение (доверие 2)  [277ED45A]
Трек 15  точное извлечение (доверие 3)  [E44562CF]
Трек 16  точное извлечение (доверие 2)  [29DF2A76]
Все треки извлечены точно
Конец отчёта
Правила, инструкции, FAQ!!!
Торрент  Добавлен [26 июн 2020, 19:20] Скачать торрент Магнет ссылка
Скачать торрент
[ Размер 11.41 КБ / Просмотров 11 ]

Статус
Проверен 
 
Размер  1 ГБ
Приватный: Нет (DHT включён)
.torrent скачан  0
 


     Отправить личное сообщение
   
Страница 1 из 1
Показать сообщения за:  Поле сортировки  
Начать новую тему Ответить на тему


Сейчас этот форум просматривают: нет зарегистрированных пользователей и гости: 0


Вы не можете начинать темы
Вы не можете отвечать на сообщения
Вы не можете редактировать свои сообщения
Вы не можете удалять свои сообщения
Вы не можете добавлять вложения

Перейти:  
cron