Начать новую тему Ответить на тему
Статистика раздачи
Размер: 898.15 МБ | Добавлен: 26 июн 2020, 17:02 | Скачали: 0
Сидеров: 0  [0 байт/сек]    Личеров: 0  [0 байт/сек]
Пред. тема | След. тема 

Автор
Сообщение

СообщениеДобавлено: 26 июн 2020, 17:02 

Ответить с цитатой 

Various Artists: Crash Frequency Vol.2 - Australian Independent Darkwave
Жанр: all electro
Год выпуска диска: 2006
Производитель диска: (Crash Frequency, Australia)
Аудио кодек: FLAC
Тип рипа: image+.cue
Битрейт аудио: lossless
Продолжительность: Disc1: 1:07:28.64;
Продолжительность: Disc2: 1:01:59.32
Трэклист:
Disc1: Arrival (Home)
1. Angelspit - Vena Cava [3:31]
2. Ikon - Sunset At Golgotha [4:43]
3. Angel Theory - Human [4:50]
4. n0n-plus - Of The In Visible [4:19]
5. Tankt - Surveillance [4:36]
6. The Crystalline Effect - On Time In Life [4:39]
7. Lux Voltaire - Dreamtime [4:25]
8. The Process Void - Skyro [4:48]
9. Tycho Brahe - Don't Feel That Way [4:51]
10. Resurrection Eve - Embrace [5:00]
11. Plague Sequence - Oblivion [4:50]
12. Domino Theory - No Apology [3:49]
13. DanelionWine - Tulip Eyes [4:28]
14. Dazychain - Hush [4:14]
15. The Tenth Stage - The 10th Stage [4:25]
Disc2: Departure (Club)
1. Angel Theory - Human [5:24]
2. The Crystalline Effect - Only You Can See You [5:03]
3. Angelspit - Elixir [4:45]
4. Ikon - Ghost In My Head (Adam Calaitzis remix) [4:47]
5. Tycho Brahe - Avarice [3:19]
6. The Tenth Stage - Criminal World [4:49]
7. Tankt - Club Life [4:36]
8. Plage Sequence - Take The First Step [5:03]
9. The Process Void - Lethargy [4:37]
10. Resurrection Eve - Forever [6:16]
11. Domino Theory - Apology [3:58]
12. Dandelion Wine - Arc [4:56]
13. Lux Voltaire - Despite You [4:26]
Код:
Exact Audio Copy V0.99 prebeta 4 from 23. January 2008
Отчёт EAC об извлечении, выполненном 30. мая 2009, 22:48
Various Artists / Crash Frequency Vol.2 - Disc 1: Arrival (Home)
Дисковод: Optiarc DVD RW AD-7173A   Adapter: 0  ID: 0
Режим чтения                 : Достоверность
Использование точного потока : Да
Отключение кэша аудио        : Да
Использование указателей C2  : Нет
Коррекция смещения при чтении                     : 48
Способность читать области Lead-in и Lead-out     : Нет
Заполнение пропущенных сэмплов тишиной            : Да
Удаление блоков с тишиной в начале и конце        : Нет
При вычислениях CRC использовались нулевые сэмплы : Да
Интерфейс                                         : Встроенный Win32-интерфейс для Win NT/2000
Выходной формат          : Пользовательский кодировщик
Выбранный битрейт        : 1024 kBit/s
Качество                 : Высокий
Добавление ID3-тэга      : Нет
Утилита сжатия           : C:\Program Files\Exact Audio Copy\Flac\flac.exe
Дополнительные параметры : -6 -V -T "ARTIST=%a" -T "TITLE=%t" -T "ALBUM=%g" -T "DATE=%y" -T "TRACKNUMBER=%n" -T "GENRE=%m" -T "COMMENT=%e" %s -o %d
TOC извлечённого CD
     Трек |   Старт  | Длительность | Начальный сектор | Конечный сектор
    ---------------------------------------------------------------------
       1  |  0:00.00 |    3:31.05   |           0      |      15829
       2  |  3:31.05 |    4:43.19   |       15830      |      37073
       3  |  8:14.24 |    4:50.18   |       37074      |      58841
       4  | 13:04.42 |    4:18.48   |       58842      |      78239
       5  | 17:23.15 |    4:35.69   |       78240      |      98933
       6  | 21:59.09 |    4:39.37   |       98934      |     119895
       7  | 26:38.46 |    4:25.06   |      119896      |     139776
       8  | 31:03.52 |    4:47.54   |      139777      |     161355
       9  | 35:51.31 |    4:51.08   |      161356      |     183188
      10  | 40:42.39 |    4:59.61   |      183189      |     205674
      11  | 45:42.25 |    4:50.05   |      205675      |     227429
      12  | 50:32.30 |    3:49.36   |      227430      |     244640
      13  | 54:21.66 |    4:27.63   |      244641      |     264728
      14  | 58:49.54 |    4:14.10   |      264729      |     283788
      15  | 63:03.64 |    4:25.00   |      283789      |     303663
Характеристики диапазона извлечения и сообщения об ошибках
Выбранный диапазон
     Имя файла E:\на торрент\Various Artists - Crash Frequency Vol.2 - Disc 1  Arrival (Home).wav
     Пиковый уровень 99.9 %
     Качество диапазона 99.9 %
     CRC теста 20D0649E
     CRC копии 20D0649E
     Копирование... OK
Ошибок не произошло
AccurateRip: сводка
Трек  1  нет в базе данных
Трек  2  нет в базе данных
Трек  3  нет в базе данных
Трек  4  нет в базе данных
Трек  5  нет в базе данных
Трек  6  нет в базе данных
Трек  7  нет в базе данных
Трек  8  нет в базе данных
Трек  9  нет в базе данных
Трек 10  нет в базе данных
Трек 11  нет в базе данных
Трек 12  нет в базе данных
Трек 13  нет в базе данных
Трек 14  нет в базе данных
Трек 15  нет в базе данных
 
Код:
Exact Audio Copy V0.99 prebeta 4 from 23. January 2008
Отчёт EAC об извлечении, выполненном 30. мая 2009, 23:43
Various / Crash Frequency Vol.2 - Disc 2: Departure (Club)
Дисковод: Optiarc DVD RW AD-7173A   Adapter: 0  ID: 0
Режим чтения                 : Достоверность
Использование точного потока : Да
Отключение кэша аудио        : Да
Использование указателей C2  : Нет
Коррекция смещения при чтении                     : 48
Способность читать области Lead-in и Lead-out     : Нет
Заполнение пропущенных сэмплов тишиной            : Да
Удаление блоков с тишиной в начале и конце        : Нет
При вычислениях CRC использовались нулевые сэмплы : Да
Интерфейс                                         : Встроенный Win32-интерфейс для Win NT/2000
Выходной формат          : Пользовательский кодировщик
Выбранный битрейт        : 1024 kBit/s
Качество                 : Высокий
Добавление ID3-тэга      : Нет
Утилита сжатия           : C:\Program Files\Exact Audio Copy\Flac\flac.exe
Дополнительные параметры : -6 -V -T "ARTIST=%a" -T "TITLE=%t" -T "ALBUM=%g" -T "DATE=%y" -T "TRACKNUMBER=%n" -T "GENRE=%m" -T "COMMENT=%e" %s -o %d
TOC извлечённого CD
     Трек |   Старт  | Длительность | Начальный сектор | Конечный сектор
    ---------------------------------------------------------------------
       1  |  0:00.00 |    5:24.23   |           0      |      24322
       2  |  5:24.23 |    5:03.15   |       24323      |      47062
       3  | 10:27.38 |    4:44.56   |       47063      |      68418
       4  | 15:12.19 |    4:46.72   |       68419      |      89940
       5  | 19:59.16 |    3:19.12   |       89941      |     104877
       6  | 23:18.28 |    4:49.10   |      104878      |     126562
       7  | 28:07.38 |    4:35.67   |      126563      |     147254
       8  | 32:43.30 |    5:03.03   |      147255      |     169982
       9  | 37:46.33 |    4:36.64   |      169983      |     190746
      10  | 42:23.22 |    6:16.19   |      190747      |     218965
      11  | 48:39.41 |    3:58.24   |      218966      |     236839
      12  | 52:37.65 |    4:55.42   |      236840      |     259006
      13  | 57:33.32 |    4:26.00   |      259007      |     278956
Характеристики диапазона извлечения и сообщения об ошибках
Выбранный диапазон
     Имя файла E:\на торрент\Various - Crash Frequency Vol.2 - Disc 2  Departure (Club).wav
     Пиковый уровень 98.9 %
     Качество диапазона 99.9 %
     CRC теста 676FA92D
     CRC копии 676FA92D
     Копирование... OK
Ошибок не произошло
AccurateRip: сводка
Трек  1  нет в базе данных
Трек  2  нет в базе данных
Трек  3  нет в базе данных
Трек  4  нет в базе данных
Трек  5  нет в базе данных
Трек  6  нет в базе данных
Трек  7  нет в базе данных
Трек  8  нет в базе данных
Трек  9  нет в базе данных
Трек 10  нет в базе данных
Трек 11  нет в базе данных
Трек 12  нет в базе данных
Трек 13  нет в базе данных
Ни одного трека нет в базе AccurateRip
Конец отчёта
Правила, инструкции, FAQ!!!
Торрент  Добавлен [26 июн 2020, 17:02] Скачать торрент Магнет ссылка
Скачать торрент
[ Размер 18.98 КБ / Просмотров 4 ]

Статус
Проверен 
 
Размер  898.15 МБ
Приватный: Нет (DHT включён)
.torrent скачан  0
 


     Отправить личное сообщение
   
Страница 1 из 1
Показать сообщения за:  Поле сортировки  
Начать новую тему Ответить на тему


Сейчас этот форум просматривают: нет зарегистрированных пользователей и гости: 0


Вы не можете начинать темы
Вы не можете отвечать на сообщения
Вы не можете редактировать свои сообщения
Вы не можете удалять свои сообщения
Вы не можете добавлять вложения

Перейти:  
cron