Начать новую тему Ответить на тему
Статистика раздачи
Размер: 846.85 МБ | Добавлен: 26 июн 2020, 16:56 | Скачали: 0
Сидеров: 0  [0 байт/сек]    Личеров: 0  [0 байт/сек]
Пред. тема | След. тема 

Автор
Сообщение

СообщениеДобавлено: 26 июн 2020, 16:56 

Ответить с цитатой 

Gastarbeit. A Finest Selection Of Delicious Remixes By Patenbrigade: Wollf
#777Жанр: all electro
Страна-производитель диска: Germany
Год издания: 2012
Издатель (лейбл): Zwieck Recordings
Номер по каталогу: ZWE 022
Аудиокодек: FLAC (*.flac)
Тип рипа: image+.cue
Битрейт аудио: lossless
Продолжительность Disc1: 1:00:26.65;
Продолжительность Disc2: 1:05:52.53
Источник (релизер): Физический носитель
Наличие сканов в содержимом раздачи: да
01. Goja Moon Rockah - Heavy Metal Computer (P:W remix) [3:41]
02. Distain - Confession (D.O.B. remix) [3:10]
03. Das Ich - Das Ich (P:W remix) [3:13]
04. Behind The Scenes - Behind The Scenes (remix by Essexx) [3:48]
05. In Strict Confidence - One Drop (P:W remix) [4:39]
06. In Strict Confidence - Paradise Regained (P:W Remix) [3:40]
07. The Eternal Afflict - Red Blooded Eternity (D.O.B. remix) [4:26]
08. Sara Noxx - Colder And Colder (D.O.B. remix) [4:00]
09. Sero.Overdose - She (D.O.B. remix) [4:25]
10. Karthagon - The Hunter (D.O.B. remix) [4:07]
11. The Frozen Autumn - Polar Plateau (D.O.B. remix) [3:37]
12. Technoir - Near You (Farewell mix by D.O.B.) [4:35]
13. Culture Kultür - To The Unknown Soldier (D.O.B. remix) [3:47]
14. Speichler (aka Brummkreiselband) - Gay Alive (Zensierte Radiofassung by D.O.B.) [4:55]
15. Speichler (aka Brummkreiselband) - Dieter '98 (99er mix by D.O.B.) [4:24]
01. Endraum - Stimmensee (D.O.B. remix) [5:49]
02. In Strict Confidence - Industrial Love (No Disc mix by D.O.B.) [4:04]
03. Sero.Overdose - Serotonin (D.O.B. remix) [4:02]
04. Sara Noxx feat. Proeject Pitchfork - Earth Song (P:W remix) [4:42]
05. The Eternal Afflict - SanDiego (P:W remix) [4:50]
06. Distorted Reality - Never Change (D.O.B. remix) [4:32]
07. Three Cold Men - Truth (D.O.B. remix) [4:28]
08. Sara Noxx feat. Antje Dieckmann - Winter Again (P:W remix) [4:21]
09. Glis - Descending (D.O.B. remix) [3:35]
10. Golden Apes - Golden Apes (Milk & Ashes mix by D.O.B.) [4:56]
11. Regenerator - God Is On My Side (Radio Active mix by D.O.B.) [3:51]
12. Dunkelwerk - Dresden (P:W remix) [3:32]
13. Sound Tesselated - Sorry For Myself (Unreleased P:W remix) [3:05]
14. Panic On The Titanic - Crystal-Clear (D.O.B. remix) [5:23]
15. Endraum - Echoschlaf (D.O.B. remix) [4:44]
Код:
Exact Audio Copy V0.99 prebeta 5 from 4. May 2009
Отчёт EAC об извлечении, выполненном 14. июля 2012, 13:31
Various / Gastarbeit
Дисковод: _NEC    DVD_RW ND-3520A   Adapter: 0  ID: 1
Режим чтения                 : Достоверность
Использование точного потока : Да
Отключение кэша аудио        : Да
Использование указателей C2  : Нет
Коррекция смещения при чтении                     : 48
Способность читать области Lead-in и Lead-out     : Нет
Заполнение пропущенных сэмплов тишиной            : Да
Удаление блоков с тишиной в начале и конце        : Нет
При вычислениях CRC использовались нулевые сэмплы : Да
Интерфейс                                         : Установленный внешний ASPI-интерфейс
Выходной формат          : Пользовательский кодировщик
Выбранный битрейт        : 1024 kBit/s
Качество                 : Высокий
Добавление ID3-тэга      : Нет
Утилита сжатия           : C:\Program Files\Exact Audio Copy\flac.exe
Дополнительные параметры : -6 -V -T "ARTIST=%a" -T "TITLE=%t" -T "ALBUM=%g" -T "DATE=%y" -T "TRACKNUMBER=%n" -T "GENRE=%m" -T "COMMENT=%e" %s -o %d
TOC извлечённого CD
     Трек |   Старт  | Длительность | Начальный сектор | Конечный сектор
    ---------------------------------------------------------------------
       1  |  0:00.00 |    3:40.50   |           0      |      16549
       2  |  3:40.50 |    3:10.13   |       16550      |      30812
       3  |  6:50.63 |    3:12.47   |       30813      |      45259
       4  | 10:03.35 |    3:48.07   |       45260      |      62366
       5  | 13:51.42 |    4:39.34   |       62367      |      83325
       6  | 18:31.01 |    3:39.71   |       83326      |      99821
       7  | 22:10.72 |    4:26.28   |       99822      |     119799
       8  | 26:37.25 |    3:59.72   |      119800      |     137796
       9  | 30:37.22 |    4:25.27   |      137797      |     157698
      10  | 35:02.49 |    4:06.65   |      157699      |     176213
      11  | 39:09.39 |    3:36.74   |      176214      |     192487
      12  | 42:46.38 |    4:34.65   |      192488      |     213102
      13  | 47:21.28 |    3:46.46   |      213103      |     230098
      14  | 51:07.74 |    4:54.64   |      230099      |     252212
      15  | 56:02.63 |    4:24.02   |      252213      |     272014
Характеристики диапазона извлечения и сообщения об ошибках
Выбранный диапазон
     Имя файла D:\На трекер\Various - Gastarbeit.wav
     Пиковый уровень 95.5 %
     Качество диапазона 100.0 %
     CRC теста C120311E
     CRC копии C120311E
     Копирование... OK
Ошибок не произошло
AccurateRip: сводка
Трек  1  нет в базе данных
Трек  2  нет в базе данных
Трек  3  нет в базе данных
Трек  4  нет в базе данных
Трек  5  нет в базе данных
Трек  6  нет в базе данных
Трек  7  нет в базе данных
Трек  8  нет в базе данных
Трек  9  нет в базе данных
Трек 10  нет в базе данных
Трек 11  нет в базе данных
Трек 12  нет в базе данных
Трек 13  нет в базе данных
Трек 14  нет в базе данных
Трек 15  нет в базе данных
Ни одного трека нет в базе AccurateRip
Конец отчёта
Код:
Exact Audio Copy V0.99 prebeta 5 from 4. May 2009
Отчёт EAC об извлечении, выполненном 15. июля 2012, 10:40
Various / Gastarbeit
Дисковод: _NEC    DVD_RW ND-3520A   Adapter: 0  ID: 1
Режим чтения                 : Достоверность
Использование точного потока : Да
Отключение кэша аудио        : Да
Использование указателей C2  : Нет
Коррекция смещения при чтении                     : 48
Способность читать области Lead-in и Lead-out     : Нет
Заполнение пропущенных сэмплов тишиной            : Да
Удаление блоков с тишиной в начале и конце        : Нет
При вычислениях CRC использовались нулевые сэмплы : Да
Интерфейс                                         : Установленный внешний ASPI-интерфейс
Выходной формат          : Пользовательский кодировщик
Выбранный битрейт        : 1024 kBit/s
Качество                 : Высокий
Добавление ID3-тэга      : Нет
Утилита сжатия           : C:\Program Files\Exact Audio Copy\flac.exe
Дополнительные параметры : -6 -V -T "ARTIST=%a" -T "TITLE=%t" -T "ALBUM=%g" -T "DATE=%y" -T "TRACKNUMBER=%n" -T "GENRE=%m" -T "COMMENT=%e" %s -o %d
TOC извлечённого CD
     Трек |   Старт  | Длительность | Начальный сектор | Конечный сектор
    ---------------------------------------------------------------------
       1  |  0:00.00 |    5:49.26   |           0      |      26200
       2  |  5:49.26 |    4:04.02   |       26201      |      44502
       3  |  9:53.28 |    4:01.65   |       44503      |      62642
       4  | 13:55.18 |    4:41.39   |       62643      |      83756
       5  | 18:36.57 |    4:49.66   |       83757      |     105497
       6  | 23:26.48 |    4:31.68   |      105498      |     125890
       7  | 27:58.41 |    4:27.45   |      125891      |     145960
       8  | 32:26.11 |    4:21.19   |      145961      |     165554
       9  | 36:47.30 |    3:35.11   |      165555      |     181690
      10  | 40:22.41 |    4:55.63   |      181691      |     203878
      11  | 45:18.29 |    3:50.66   |      203879      |     221194
      12  | 49:09.20 |    3:31.64   |      221195      |     237083
      13  | 52:41.09 |    3:04.53   |      237084      |     250936
      14  | 55:45.62 |    5:22.44   |      250937      |     275130
      15  | 61:08.31 |    4:44.22   |      275131      |     296452
Характеристики диапазона извлечения и сообщения об ошибках
Выбранный диапазон
     Имя файла D:\На трекер\Various - Gastarbeit.wav
     Пиковый уровень 95.5 %
     Качество диапазона 100.0 %
     CRC теста F2605CBE
     CRC копии F2605CBE
     Копирование... OK
Ошибок не произошло
AccurateRip: сводка
Трек  1  нет в базе данных
Трек  2  нет в базе данных
Трек  3  нет в базе данных
Трек  4  нет в базе данных
Трек  5  нет в базе данных
Трек  6  нет в базе данных
Трек  7  нет в базе данных
Трек  8  нет в базе данных
Трек  9  нет в базе данных
Трек 10  нет в базе данных
Трек 11  нет в базе данных
Трек 12  нет в базе данных
Трек 13  нет в базе данных
Трек 14  нет в базе данных
Трек 15  нет в базе данных
Ни одного трека нет в базе AccurateRip
Конец отчёта
Правила, инструкции, FAQ!!!
Торрент  Добавлен [26 июн 2020, 16:56] Скачать торрент Магнет ссылка
Скачать торрент
[ Размер 17.84 КБ / Просмотров 4 ]

Статус
Проверен 
 
Размер  846.85 МБ
Приватный: Нет (DHT включён)
.torrent скачан  0
 


     Отправить личное сообщение
   
Страница 1 из 1
Показать сообщения за:  Поле сортировки  
Начать новую тему Ответить на тему


Сейчас этот форум просматривают: нет зарегистрированных пользователей и гости: 0


Вы не можете начинать темы
Вы не можете отвечать на сообщения
Вы не можете редактировать свои сообщения
Вы не можете удалять свои сообщения
Вы не можете добавлять вложения

Перейти:  
cron