Начать новую тему Ответить на тему
Статистика раздачи
Размер: 317.12 МБ | Добавлен: 26 июн 2020, 17:09 | Скачали: 0
Сидеров: 0  [0 байт/сек]    Личеров: 0  [0 байт/сек]
Пред. тема | След. тема 

Автор
Сообщение

СообщениеДобавлено: 26 июн 2020, 17:09 

Ответить с цитатой 

Cleen - Designed Memories
Жанр: all electro
Год выпуска диска: 1997
Производитель диска: (Zoth Ommog, Germany)
Аудио кодек: FLAC
Тип рипа: image+.cue
Битрейт аудио: lossless
Продолжительность: 47:51.23
Трэклист:
1. Believe [6:06]
2. Freezeout [5:55]
3. For All Of Us [5:30]
4. Smoking Enemy? (Ext. Instrumental) [10:01]
5. Believe (Edit) [5:02]
6. For All Of Us (Dubventure '96) [7:43]
7. Did You Forget (Demoversion) [5:05]
8. Shadowbox (Outro) [2:29]
Код:
Exact Audio Copy V0.99 prebeta 4 from 23. January 2008
Отчёт EAC об извлечении, выполненном 3. августа 2009, 11:25
Cleen / Designed Memories
Дисковод: Optiarc DVD RW AD-7173A   Adapter: 0  ID: 0
Режим чтения                 : Достоверность
Использование точного потока : Да
Отключение кэша аудио        : Да
Использование указателей C2  : Нет
Коррекция смещения при чтении                     : 48
Способность читать области Lead-in и Lead-out     : Нет
Заполнение пропущенных сэмплов тишиной            : Да
Удаление блоков с тишиной в начале и конце        : Нет
При вычислениях CRC использовались нулевые сэмплы : Да
Интерфейс                                         : Встроенный Win32-интерфейс для Win NT/2000
Выходной формат          : Пользовательский кодировщик
Выбранный битрейт        : 1024 kBit/s
Качество                 : Высокий
Добавление ID3-тэга      : Нет
Утилита сжатия           : C:\Program Files\Exact Audio Copy\Flac\flac.exe
Дополнительные параметры : -V -6 -T "artist=%a" -T "title=%t" -T "album=%g" -T "date=%y" -T "tracknumber=%n" -T "genre=%m" %s
TOC извлечённого CD
     Трек |   Старт  | Длительность | Начальный сектор | Конечный сектор
    ---------------------------------------------------------------------
       1  |  0:00.00 |    6:05.61   |           0      |      27435
       2  |  6:05.61 |    5:55.14   |       27436      |      54074
       3  | 12:01.00 |    5:29.62   |       54075      |      78811
       4  | 17:30.62 |   10:01.10   |       78812      |     123896
       5  | 27:31.72 |    5:01.67   |      123897      |     146538
       6  | 32:33.64 |    7:43.19   |      146539      |     181282
       7  | 40:17.08 |    5:04.59   |      181283      |     204141
       8  | 45:21.67 |    2:29.31   |      204142      |     215347
Характеристики диапазона извлечения и сообщения об ошибках
Выбранный диапазон
     Имя файла E:\torrent2\Cleen - Designed Memories.wav
     Пиковый уровень 100.0 %
     Качество диапазона 100.0 %
     CRC теста 8B88C1DE
     CRC копии 8B88C1DE
     Копирование... OK
Ошибок не произошло
AccurateRip: сводка
Трек  1  нет в базе данных
Трек  2  нет в базе данных
Трек  3  нет в базе данных
Трек  4  нет в базе данных
Трек  5  нет в базе данных
Трек  6  нет в базе данных
Трек  7  нет в базе данных
Трек  8  нет в базе данных
Ни одного трека нет в базе AccurateRip
Конец отчёта


Правила, инструкции, FAQ!!!
Торрент  Добавлен [26 июн 2020, 17:09] Скачать торрент Магнет ссылка
Скачать торрент
[ Размер 13.14 КБ / Просмотров 6 ]

Статус
Проверен 
 
Размер  317.12 МБ
Приватный: Нет (DHT включён)
.torrent скачан  0
 


     Отправить личное сообщение
   
Страница 1 из 1
Показать сообщения за:  Поле сортировки  
Начать новую тему Ответить на тему


Сейчас этот форум просматривают: нет зарегистрированных пользователей и гости: 0


Вы не можете начинать темы
Вы не можете отвечать на сообщения
Вы не можете редактировать свои сообщения
Вы не можете удалять свои сообщения
Вы не можете добавлять вложения

Перейти:  
cron