Начать новую тему Ответить на тему
Статистика раздачи
Размер: 407.1 МБ | Добавлен: 26 июн 2020, 17:02 | Скачали: 0
Сидеров: 0  [0 байт/сек]    Личеров: 0  [0 байт/сек]
Пред. тема | След. тема 

Автор
Сообщение

СообщениеДобавлено: 26 июн 2020, 17:02 

Ответить с цитатой 

Psychopomps - Six Six Six Nights In Hell
Жанр: Aggrotech
Год выпуска диска: 1995
Производитель диска: USA
Аудио кодек: APE
Тип рипа: image+.cue
Битрейт аудио: lossless
Продолжительность: 60:26
Трэклист:
01. Symphonie De La Morgue Souterraine 4.10
02. Wonderful World 4.57
03. Satan Lives Within Me 6.21
04. How I Hate 5.22
05. Superpsycho 4.37
06. God's Gift To Woman 6.16
07. Scared Eyes Open Wide 6.58
08. Lies 6.42
09. The Whore In You 5.12
10. Trapped 1.40
11. Six Six Six Nights In Hell 7.48
Доп. информация: Cleopatra CLEO 9556-2
Exact Audio Copy V0.99 prebeta 5 from 4. May 2009
Отчёт EAC об извлечении, выполненном 23. февраля 2010, 16:19
Psychopomps / Six Six Six Nights In Hell
Дисковод: Optiarc DVD RW AD-5200S Adapter: 2 ID: 0
Режим чтения : Достоверность
Использование точного потока : Да
Отключение кэша аудио : Да
Использование указателей C2 : Нет
Коррекция смещения при чтении : 48
Способность читать области Lead-in и Lead-out : Нет
Заполнение пропущенных сэмплов тишиной : Да
Удаление блоков с тишиной в начале и конце : Нет
При вычислениях CRC использовались нулевые сэмплы : Да
Интерфейс : Установленный внешний ASPI-интерфейс
Выходной формат : Внутренние WAV-операции
Формат сэмплов : 44.100 Гц; 16 бит; стерео
TOC извлечённого CD
Трек | Старт | Длительность | Начальный сектор | Конечный сектор
---------------------------------------------------------------------
1 | 0:00.50 | 4:01.37 | 50 | 18161
2 | 4:02.12 | 4:59.53 | 18162 | 40639
3 | 9:01.65 | 6:24.35 | 40640 | 69474
4 | 15:26.25 | 5:25.62 | 69475 | 93911
5 | 20:52.12 | 4:40.13 | 93912 | 114924
6 | 25:32.25 | 6:22.02 | 114925 | 143576
7 | 31:54.27 | 7:00.28 | 143577 | 175104
8 | 38:54.55 | 6:45.02 | 175105 | 205481
9 | 45:39.57 | 5:13.10 | 205482 | 228966
10 | 50:52.67 | 1:42.60 | 228967 | 236676
11 | 52:35.52 | 7:50.25 | 236677 | 271951
Характеристики диапазона извлечения и сообщения об ошибках
Выбранный диапазон
Имя файла J:\Psychopomps - Six Six Six Nights In Hell.wav
Пиковый уровень 100.0 %
Качество диапазона 100.0 %
CRC теста 6FB75A30
CRC копии 6FB75A30
Копирование... OK
Ошибок не произошло
Конец отчёта
Правила, инструкции, FAQ!!!
Торрент  Добавлен [26 июн 2020, 17:02] Скачать торрент Магнет ссылка
Скачать торрент
[ Размер 16.6 КБ / Просмотров 2 ]

Статус
Проверен 
 
Размер  407.1 МБ
Приватный: Нет (DHT включён)
.torrent скачан  0
 


     Отправить личное сообщение
   
Страница 1 из 1
Показать сообщения за:  Поле сортировки  
Начать новую тему Ответить на тему


Сейчас этот форум просматривают: нет зарегистрированных пользователей и гости: 0


Вы не можете начинать темы
Вы не можете отвечать на сообщения
Вы не можете редактировать свои сообщения
Вы не можете удалять свои сообщения
Вы не можете добавлять вложения

Перейти:  
cron