Начать новую тему Ответить на тему
Статистика раздачи
Размер: 314.48 МБ | Добавлен: 26 июн 2020, 17:04 | Скачали: 0
Сидеров: 0  [0 байт/сек]    Личеров: 0  [0 байт/сек]
Пред. тема | След. тема 

Автор
Сообщение

СообщениеДобавлено: 26 июн 2020, 17:04 

Ответить с цитатой 

Psychopomps - Pro-Death Ravers
Жанр: Aggrotech
Год выпуска диска: 1993
Производитель диска: USA
Аудио кодек: APE
Тип рипа: image+.cue
Битрейт аудио: lossless
Продолжительность: 46:54
Трэклист:
01. Timebomb 4.41
02. The Slaughter 4.17
03. Daddys Girl 7.42
04. Party Asshole 4.20
05. Doggy Style 4.29
06. Mad Dog Killer 3.41
07. What About Revenge? 5.13
08. Psychopath?
09. Death To Censorship 4.49
10. Down The Drain (Again) 3.23
Доп. информация: Cleopatra CLEO23092
Exact Audio Copy V0.99 prebeta 5 from 4. May 2009
Отчёт EAC об извлечении, выполненном 23. февраля 2010, 21:07
Psychopomps / Pro-Death Ravers
Дисковод: Optiarc DVD RW AD-5200S Adapter: 2 ID: 0
Режим чтения : Достоверность
Использование точного потока : Да
Отключение кэша аудио : Да
Использование указателей C2 : Нет
Коррекция смещения при чтении : 48
Способность читать области Lead-in и Lead-out : Нет
Заполнение пропущенных сэмплов тишиной : Да
Удаление блоков с тишиной в начале и конце : Нет
При вычислениях CRC использовались нулевые сэмплы : Да
Интерфейс : Установленный внешний ASPI-интерфейс
Выходной формат : Внутренние WAV-операции
Формат сэмплов : 44.100 Гц; 16 бит; стерео
TOC извлечённого CD
Трек | Старт | Длительность | Начальный сектор | Конечный сектор
---------------------------------------------------------------------
1 | 0:00.00 | 4:41.25 | 0 | 21099
2 | 4:41.25 | 4:20.25 | 21100 | 40624
3 | 9:01.50 | 7:43.25 | 40625 | 75374
4 | 16:45.00 | 4:21.25 | 75375 | 94974
5 | 21:06.25 | 4:28.50 | 94975 | 115124
6 | 25:35.00 | 3:44.25 | 115125 | 131949
7 | 29:19.25 | 5:15.00 | 131950 | 155574
8 | 34:34.25 | 4:02.00 | 155575 | 173724
9 | 38:36.25 | 4:52.00 | 173725 | 195624
10 | 43:28.25 | 3:25.67 | 195625 | 211066
Характеристики диапазона извлечения и сообщения об ошибках
Выбранный диапазон
Имя файла J:\Psychopomps - Pro-Death Ravers.wav
Пиковый уровень 100.0 %
Качество диапазона 99.9 %
CRC копии 33936BED
Копирование... OK
Ошибок не произошло
Конец отчёта
Правила, инструкции, FAQ!!!
Торрент  Добавлен [26 июн 2020, 17:04] Скачать торрент Магнет ссылка
Скачать торрент
[ Размер 12.99 КБ / Просмотров 3 ]

Статус
Проверен 
 
Размер  314.48 МБ
Приватный: Нет (DHT включён)
.torrent скачан  0
 


     Отправить личное сообщение
   
Страница 1 из 1
Показать сообщения за:  Поле сортировки  
Начать новую тему Ответить на тему


Сейчас этот форум просматривают: нет зарегистрированных пользователей и гости: 0


Вы не можете начинать темы
Вы не можете отвечать на сообщения
Вы не можете редактировать свои сообщения
Вы не можете удалять свои сообщения
Вы не можете добавлять вложения

Перейти:  
cron