Начать новую тему Ответить на тему
Статистика раздачи
Размер: 403.65 МБ | Добавлен: 26 июн 2020, 20:27 | Скачали: 0
Сидеров: 2  [0 байт/сек]    Личеров: 0  [0 байт/сек]
Пред. тема | След. тема 

Автор
Сообщение

СообщениеДобавлено: 26 июн 2020, 20:27 

Ответить с цитатой 




Insane Tribute Vol.1 EURODANCE





• Жанр: Aggrotech | Industrial | EBM
• Носитель: WEB
• Год издания: 2018
• Издатель: Insane Records
• Аудиокодек: FLAC (*.flac)
• Тип рипа: tracks
• Продолжительность: 00:52:11
• Источник (спасибо): Scorpio666
• WEB релиз: bandcamp
• Наличие сканов: front

01 - Distoxia - Bailando (Paradisio Cover) (00:05:30)
02 - Aktivehate - U Got 2 Let The Music (Cappella Cover) (00:03:32)
03 - ExoPhantom feat. Xyren - Voices (Helena Cover) (00:05:35)
04 - C-Lekktor feat. Maria Xoniki - Dreams (2 Brothers On The 4th Floor Cover) (00:05:26)
05 - Parasite Of God - Rhythm Is A Dancer (Snap! Cover) (00:04:24)
06 - Suppressor - Alarma (666 Cover) (00:03:58)
07 - Chamaeleon feat. Maria Xoniki - Right In The Night (Jam & Spoon Cover) (00:04:03)
08 - Viscera Drip - Better Off Alone (Alice Deejay Cover) (00:02:58)
09 - Larva - The Sound Of C. (Confetti's Cover) (00:02:55)
10 - Psyborg Corp. - Eins Zwei Polizei (Mo-Do Cover) (00:03:47)
11 - Van Roy Asylum - Ding Dong Song (Günther Cover) (00:04:33)
12 - Arian 1 - What Is Love (Haddaway Cover) (00:05:24)



Код:
foobar2000 1.4 / Dynamic Range Meter 1.1.1
log date: 2018-10-02 17:56:04
--------------------------------------------------------------------------------
Analyzed: Aktivehate / Insane Tribute Vol.1 EURODANCE (1)
          Arian 1 / Insane Tribute Vol.1 EURODANCE (2)
          Chamaeleon feat. Maria Xoniki / Insane Tribute Vol.1 EURODANCE (3)
          C-Lekktor feat. Maria Xoniki / Insane Tribute Vol.1 EURODANCE (4)
          Distoxia / Insane Tribute Vol.1 EURODANCE (5)
          ExoPhantom feat. Xyren / Insane Tribute Vol.1 EURODANCE (6)
          Larva / Insane Tribute Vol.1 EURODANCE (7)
          Parasite Of God / Insane Tribute Vol.1 EURODANCE (8)
          Psyborg Corp. / Insane Tribute Vol.1 EURODANCE (9)
          Suppressor / Insane Tribute Vol.1 EURODANCE (10)
          Van Roy Asylum / Insane Tribute Vol.1 EURODANCE (11)
          Viscera Drip / Insane Tribute Vol.1 EURODANCE (12)
--------------------------------------------------------------------------------
DR         Peak         RMS     Duration Track
--------------------------------------------------------------------------------
DR6       -0.31 dB    -6.73 dB      3:33 02-U Got 2 Let The Music (Cappella Cover)
DR8       -0.31 dB    -8.92 dB      5:24 12-What Is Love (Haddaway Cover)
DR5       -0.31 dB    -6.58 dB      4:03 07-Right In The Night (Jam & Spoon Cover)
DR5       -0.31 dB    -6.98 dB      5:27 04-Dreams (2 Brothers On The 4th Floor Cover)
DR6       -0.31 dB    -7.34 dB      5:31 01-Bailando (Paradisio Cover)
DR6       -0.31 dB    -7.13 dB      5:36 03-Voices (Helena Cover)
DR6       -0.31 dB    -7.25 dB      2:56 09-The Sound Of C. (Confetti's Cover)
DR6       -0.31 dB    -8.24 dB      4:24 05-Rhythm Is A Dancer (Snap! Cover)
DR7       -0.31 dB    -8.22 dB      3:47 10-Eins Zwei Polizei (Mo-Do Cover)
DR6       -0.31 dB    -6.73 dB      3:58 06-Alarma (666 Cover)
DR5       -0.31 dB    -7.03 dB      4:34 11-Ding Dong Song (Günther Cover)
DR6       -0.31 dB    -7.94 dB      2:59 08-Better Off Alone (Alice Deejay Cover)
--------------------------------------------------------------------------------
Number of tracks:  12
Official DR value: DR6
Samplerate:        44100 Hz
Channels:          2
Bits per sample:   16
Bitrate:           1086 kbps
Codec:             FLAC
================================================================================

Код:
-----------------------
DON'T MODIFY THIS FILE
-----------------------
PERFORMER: auCDtect Task Manager, ver. 1.6.0 RC1 build 1.6.0.1
Copyright (c) 2008-2010 y-soft. All rights reserved
[url=http://y-soft.org]http://y-soft.org[/url]
ANALYZER: auCDtect: CD records authenticity detector, version 0.8.2
Copyright (c) 2004 Oleg Berngardt. All rights reserved.
Copyright (c) 2004 Alexander Djourik. All rights reserved.
FILE: 12 - Arian 1 - What Is Love (Haddaway Cover).flac
  Size: 36652537 Hash: C103AB35718DABAD354433EEB95470BC Accuracy: -m0
  Conclusion: CDDA 100%
  Signature: A57470780F855200C49D1EEEFCAD96E8EE7C0259
FILE: 11 - Van Roy Asylum - Ding Dong Song (Günther Cover).flac
  Size: 38792239 Hash: 8779FEB79FD6E4CE3ECA5FB8F459229D Accuracy: -m0
  Conclusion: CDDA 100%
  Signature: 64A596E446E39BB870A1B2BAD92DF02D74E94299
FILE: 10 - Psyborg Corp. - Eins Zwei Polizei (Mo-Do Cover).flac
  Size: 30157560 Hash: 1CF26DC731E8C1C6B106CF7172D1D257 Accuracy: -m0
  Conclusion: CDDA 100%
  Signature: 5FB162C6EC6B4A2F7E4E837B04CF18C28EC42FFB
FILE: 09 - Larva - The Sound Of C. (Confetti's Cover).flac
  Size: 24429070 Hash: 8B55E7169501F86458877F1EDB0545B2 Accuracy: -m0
  Conclusion: CDDA 100%
  Signature: B21799A4E1D2A3206D4DB032DB3E41DE830BEF4C
FILE: 08 - Viscera Drip - Better Off Alone (Alice Deejay Cover).flac
  Size: 24230164 Hash: 65D40EF8549E3A718A8BF91A42FC7087 Accuracy: -m0
  Conclusion: CDDA 100%
  Signature: CE95456B640C635CBA78BBDF7698EF2E933991E3
FILE: 07 - Chamaeleon feat. Maria Xoniki - Right In The Night (Jam & Spoon Cover).flac
  Size: 33219632 Hash: 5BFAB77BD52C714721487CB12220D171 Accuracy: -m0
  Conclusion: CDDA 99%
  Signature: 2096964D4DCF239EDB7FA37765CEC1F8D9D21419
FILE: 06 - Suppressor - Alarma (666 Cover).flac
  Size: 33198578 Hash: 277A4F7AC38C02040BB3E1CF75A8D9F3 Accuracy: -m0
  Conclusion: CDDA 99%
  Signature: BE2F3C9B7D6959A143AD6DD132D658D2BC898E61
FILE: 05 - Parasite Of God - Rhythm Is A Dancer (Snap! Cover).flac
  Size: 34484364 Hash: 8E1BC04279B28A863A4BF1A6BB3BBB88 Accuracy: -m0
  Conclusion: CDDA 99%
  Signature: 1D55E4749E6973DE369E98AA3F3BD3CE039847F9
FILE: 04 - C-Lekktor feat. Maria Xoniki - Dreams (2 Brothers On The 4th Floor Cover).flac
  Size: 43835893 Hash: C1EAFC8636172B079DA87F1E859FA57E Accuracy: -m0
  Conclusion: CDDA 100%
  Signature: DD0AFD8A46C0EECA95DDF9DFF4D5C8E23954A1E5
FILE: 03 - ExoPhantom feat. Xyren - Voices (Helena Cover).flac
  Size: 47776938 Hash: D7E4A3E45BCFAE8A3B22F420804FEF13 Accuracy: -m0
  Conclusion: CDDA 100%
  Signature: D89522CCD8587D2A50F0121D3E658DE626BBE106
FILE: 02 - Aktivehate - U Got 2 Let The Music (Cappella Cover).flac
  Size: 30753557 Hash: C3B8CBFA98AED49F202E2AB96EB76674 Accuracy: -m0
  Conclusion: CDDA 100%
  Signature: 71A36797E3E5395925EFAAFB506B50166DD24295
FILE: 01 - Distoxia - Bailando (Paradisio Cover).flac
  Size: 42901597 Hash: 072B0912D57167BA3AFCAAE7ECC4D339 Accuracy: -m0
  Conclusion: CDDA 100%
  Signature: 70FFE7AE6A32E129C2E8FB2919FA7C47F55D76B9

Правила, инструкции, FAQ!!!
Торрент  Добавлен [26 июн 2020, 20:27] Скачать торрент Магнет ссылка
Скачать торрент
[ Размер 17.32 КБ / Просмотров 4 ]

Статус
Проверен 
 
Размер  403.65 МБ
Приватный: Нет (DHT включён)
.torrent скачан  0
 


     Отправить личное сообщение
   
Страница 1 из 1
Показать сообщения за:  Поле сортировки  
Начать новую тему Ответить на тему


Сейчас этот форум просматривают: нет зарегистрированных пользователей и гости: 0


Вы не можете начинать темы
Вы не можете отвечать на сообщения
Вы не можете редактировать свои сообщения
Вы не можете удалять свои сообщения
Вы не можете добавлять вложения

Перейти:  
cron