Начать новую тему Ответить на тему
Статистика раздачи
Размер: 422.82 МБ | Добавлен: 26 июн 2020, 16:50 | Скачали: 0
Сидеров: 0  [0 байт/сек]    Личеров: 0  [0 байт/сек]
Пред. тема | След. тема 

Автор
Сообщение

СообщениеДобавлено: 26 июн 2020, 16:50 

Ответить с цитатой 

MindFluxFuneral - Teatro Derevelación
Жанр: Aggrotech, Electro, Industrial
Страна-производитель диска: USA
Год издания диска: 2007
Издатель (лейбл): Bitriot Records
Номер по каталогу: BR6001
Страна: USA
Аудио кодек: FLAC (*.flac)
Тип рипа: tracks+.cue
Битрейт аудио: lossless
Продолжительность: 61:52
Источник (релизер): What.CD
Наличие сканов в содержимом раздачи: нет
Доп. информация: myspace, официальный сайт
Треклист:
1. Don't Fall Back 6:53
2. No Man 4:59
3. Lies 7:19
4. Shutdown 3:51
5. You And I 2:48
6. Cuts The Skin 7:44
7. Soul And Substance 3:27
8. SkinLoader (Brap Mix) 6:54
9. Retribution 4:42
10. Whore 4:52
11. You Belong To Me 7:24
12. Untitled 0:30
13. Untitled 0:22
Внимание! Все выложенные здесь материалы предоставлены исключительно в целях ознакомления! После ознакомления с материалами Вы обязаны их удалить! Если Вы хотите пользоваться данным материалом в дальнейшем – Вы должны приобрести лицензионный диск.
Лучшая ваша благодарность за раздачу - отзывы об альбоме!
Код:
Exact Audio Copy V0.99 prebeta 5 from 4. May 2009
EAC extraction logfile from 27. January 2010, 16:42
mindFluxFuneral / teatro deRevelaciуn
Used drive  : ASUS    DRW-2014L1T   Adapter: 0  ID: 1
Read mode               : Secure
Utilize accurate stream : Yes
Defeat audio cache      : Yes
Make use of C2 pointers : No
Read offset correction                      : 6
Overread into Lead-In and Lead-Out          : No
Fill up missing offset samples with silence : Yes
Delete leading and trailing silent blocks   : No
Null samples used in CRC calculations       : Yes
Used interface                              : Installed external ASPI interface
Gap handling                                : Appended to previous track
Used output format              : User Defined Encoder
Selected bitrate                : 192 kBit/s
Quality                         : High
Add ID3 tag                     : No
Command line compressor         : F:\Program Files\FLAC\flac.exe
Additional command line options : -8 -A tukey(0.25) -A gauss(0.1875) -b 4096 -V -T "artist=%a" -T "title=%t" -T "album=%g" -T "date=%y" -T "tracknumber=%n" -T "genre=%m" %s --sector-align
TOC of the extracted CD
     Track |   Start  |  Length  | Start sector | End sector
    ---------------------------------------------------------
        1  |  0:00.00 |  6:53.67 |         0    |    31041
        2  |  6:53.67 |  4:59.57 |     31042    |    53523
        3  | 11:53.49 |  7:19.26 |     53524    |    86474
        4  | 19:13.00 |  3:51.72 |     86475    |   103871
        5  | 23:04.72 |  2:48.67 |    103872    |   116538
        6  | 25:53.64 |  7:44.12 |    116539    |   151350
        7  | 33:38.01 |  3:27.13 |    151351    |   166888
        8  | 37:05.14 |  6:54.67 |    166889    |   198005
        9  | 44:00.06 |  4:42.31 |    198006    |   219186
       10  | 48:42.37 |  4:52.35 |    219187    |   241121
       11  | 53:34.72 |  7:24.50 |    241122    |   274471
       12  | 60:59.47 |  0:30.22 |    274472    |   276743
       13  | 61:29.69 |  0:22.07 |    276744    |   278400
Track  1
     Filename F:\Documents and Settings\Connor\My Documents\Rips for What.cd\mindFluxFuneral - teatro deRevelaciуn [2007]\01 - mindFluxFuneral - don't fall back.wav
     Pre-gap length  0:00:02.00
     Peak level 99.0 %
     Track quality 100.0 %
     Test CRC 53C8B9EE
     Copy CRC 53C8B9EE
     Copy OK
Track  2
     Filename F:\Documents and Settings\Connor\My Documents\Rips for What.cd\mindFluxFuneral - teatro deRevelaciуn [2007]\02 - mindFluxFuneral - no man.wav
     Peak level 100.0 %
     Track quality 100.0 %
     Test CRC C1B285CE
     Copy CRC C1B285CE
     Copy OK
Track  3
     Filename F:\Documents and Settings\Connor\My Documents\Rips for What.cd\mindFluxFuneral - teatro deRevelaciуn [2007]\03 - mindFluxFuneral - lies.wav
     Peak level 100.0 %
     Track quality 100.0 %
     Test CRC F048C930
     Copy CRC F048C930
     Copy OK
Track  4
     Filename F:\Documents and Settings\Connor\My Documents\Rips for What.cd\mindFluxFuneral - teatro deRevelaciуn [2007]\04 - mindFluxFuneral - shutdown.wav
     Peak level 100.0 %
     Track quality 100.0 %
     Test CRC 96BBCE47
     Copy CRC 96BBCE47
     Copy OK
Track  5
     Filename F:\Documents and Settings\Connor\My Documents\Rips for What.cd\mindFluxFuneral - teatro deRevelaciуn [2007]\05 - mindFluxFuneral - you and i.wav
     Peak level 94.5 %
     Track quality 100.0 %
     Test CRC 85BDA3B7
     Copy CRC 85BDA3B7
     Copy OK
Track  6
     Filename F:\Documents and Settings\Connor\My Documents\Rips for What.cd\mindFluxFuneral - teatro deRevelaciуn [2007]\06 - mindFluxFuneral - cuts the skin.wav
     Peak level 100.0 %
     Track quality 100.0 %
     Test CRC 160A2B5F
     Copy CRC 160A2B5F
     Copy OK
Track  7
     Filename F:\Documents and Settings\Connor\My Documents\Rips for What.cd\mindFluxFuneral - teatro deRevelaciуn [2007]\07 - mindFluxFuneral - soul and substance.wav
     Peak level 100.0 %
     Track quality 100.0 %
     Test CRC CB9830E4
     Copy CRC CB9830E4
     Copy OK
Track  8
     Filename F:\Documents and Settings\Connor\My Documents\Rips for What.cd\mindFluxFuneral - teatro deRevelaciуn [2007]\08 - mindFluxFuneral - skinloader[brap mix].wav
     Peak level 99.1 %
     Track quality 100.0 %
     Test CRC 53DAB0D9
     Copy CRC 53DAB0D9
     Copy OK
Track  9
     Filename F:\Documents and Settings\Connor\My Documents\Rips for What.cd\mindFluxFuneral - teatro deRevelaciуn [2007]\09 - mindFluxFuneral - retribution.wav
     Peak level 100.0 %
     Track quality 100.0 %
     Test CRC CFEAEA81
     Copy CRC CFEAEA81
     Copy OK
Track 10
     Filename F:\Documents and Settings\Connor\My Documents\Rips for What.cd\mindFluxFuneral - teatro deRevelaciуn [2007]\10 - mindFluxFuneral - whore.wav
     Peak level 100.0 %
     Track quality 100.0 %
     Test CRC 1A0D1B8B
     Copy CRC 1A0D1B8B
     Copy OK
Track 11
     Filename F:\Documents and Settings\Connor\My Documents\Rips for What.cd\mindFluxFuneral - teatro deRevelaciуn [2007]\11 - mindFluxFuneral - you belong to me.wav
     Peak level 100.0 %
     Track quality 100.0 %
     Test CRC 10AC2A52
     Copy CRC 10AC2A52
     Copy OK
Track 12
     Filename F:\Documents and Settings\Connor\My Documents\Rips for What.cd\mindFluxFuneral - teatro deRevelaciуn [2007]\12 - mindFluxFuneral - untitled (silence).wav
     Peak level 0.0 %
     Track quality 100.0 %
     Test CRC BB341F66
     Copy CRC BB341F66
     Copy OK
Track 13
     Filename F:\Documents and Settings\Connor\My Documents\Rips for What.cd\mindFluxFuneral - teatro deRevelaciуn [2007]\13 - mindFluxFuneral - untitled.wav
     Peak level 92.4 %
     Track quality 100.0 %
     Test CRC F5685C4D
     Copy CRC F5685C4D
     Copy OK
No errors occurred
End of status report
Код:
REM GENRE Industrial
REM DATE 2007
REM DISCID A60E800D
REM COMMENT "ExactAudioCopy v0.99pb5"
PERFORMER "mindFluxFuneral"
TITLE "teatro deRevelaciуn"
FILE "01 - mindFluxFuneral - don't fall back.wav" WAVE
  TRACK 01 AUDIO
    TITLE "don't fall back"
    PERFORMER "mindFluxFuneral"
    INDEX 01 00:00:00
FILE "02 - mindFluxFuneral - no man.wav" WAVE
  TRACK 02 AUDIO
    TITLE "no man"
    PERFORMER "mindFluxFuneral"
    INDEX 01 00:00:00
FILE "03 - mindFluxFuneral - lies.wav" WAVE
  TRACK 03 AUDIO
    TITLE "lies"
    PERFORMER "mindFluxFuneral"
    INDEX 01 00:00:00
FILE "04 - mindFluxFuneral - shutdown.wav" WAVE
  TRACK 04 AUDIO
    TITLE "shutdown"
    PERFORMER "mindFluxFuneral"
    INDEX 01 00:00:00
FILE "05 - mindFluxFuneral - you and i.wav" WAVE
  TRACK 05 AUDIO
    TITLE "you and i"
    PERFORMER "mindFluxFuneral"
    INDEX 01 00:00:00
FILE "06 - mindFluxFuneral - cuts the skin.wav" WAVE
  TRACK 06 AUDIO
    TITLE "cuts the skin"
    PERFORMER "mindFluxFuneral"
    INDEX 01 00:00:00
FILE "07 - mindFluxFuneral - soul and substance.wav" WAVE
  TRACK 07 AUDIO
    TITLE "soul and substance"
    PERFORMER "mindFluxFuneral"
    INDEX 01 00:00:00
FILE "08 - mindFluxFuneral - skinloader[brap mix].wav" WAVE
  TRACK 08 AUDIO
    TITLE "skinloader[brap mix]"
    PERFORMER "mindFluxFuneral"
    INDEX 01 00:00:00
FILE "09 - mindFluxFuneral - retribution.wav" WAVE
  TRACK 09 AUDIO
    TITLE "retribution"
    PERFORMER "mindFluxFuneral"
    INDEX 01 00:00:00
FILE "10 - mindFluxFuneral - whore.wav" WAVE
  TRACK 10 AUDIO
    TITLE "whore"
    PERFORMER "mindFluxFuneral"
    INDEX 01 00:00:00
FILE "11 - mindFluxFuneral - you belong to me.wav" WAVE
  TRACK 11 AUDIO
    TITLE "you belong to me"
    PERFORMER "mindFluxFuneral"
    INDEX 01 00:00:00
FILE "12 - mindFluxFuneral - untitled (silence).wav" WAVE
  TRACK 12 AUDIO
    TITLE "untitled (silence)"
    PERFORMER "mindFluxFuneral"
    INDEX 01 00:00:00
FILE "13 - mindFluxFuneral - untitled.wav" WAVE
  TRACK 13 AUDIO
    TITLE "untitled"
    PERFORMER "mindFluxFuneral"
    INDEX 01 00:00:00



hardcore torture tekk: a chaotic unleashing of vocals and sound chanting back the ills within which we live. history: mindFluxFuneral was originally formed in 2.93, releasing their first ep in the spring of 94. The revenant ep took four months to produce, held six tracks covering many of their stylistic differences, and displayed the artwork of artist tom nawara. Since their initial release mindFluxFuneral has appeared on numerous compliations, released multiple EP's, worked with dozens of other bands, and performed all across the Midwest United States.
In 1997 mindFluxFuneral complied many of their best tracks and put them together into their first full length release birthMark. The album was released by their good friend Jester of the eZine Sonic-Boom and Doppler Effect Records. The album featured chaotic ritual like tracks such as 'Hatred' and 'Infected', floor pounding tracks such as 'Dream it Dead' and mood driven spaces such as 'Melting Spirit'.
future: mFF is has begun work on their second BitRiot release, which should be released by summer of '08. j.prost is working in the studio with Cyanotic,Marazene, Y-Luk-O, and Breathe and Decay. while t.smith is producing Flutters new album and developing video's for Flux's current singles. and thus it goes....
Группа пишется на том же лейбле, что и Cyanotoc, Torrent Vaciine, Everything Goes Cold, Rabbit Junk и Left Spine Down. Так что сами делайте выводы о звучании альбома.
j.prost
t.smith
Правила, инструкции, FAQ!!!
Торрент  Добавлен [26 июн 2020, 16:50] Скачать торрент Магнет ссылка
Скачать торрент
[ Размер 18.09 КБ / Просмотров 3 ]

Статус
Проверен 
 
Размер  422.82 МБ
Приватный: Нет (DHT включён)
.torrent скачан  0
 


     Отправить личное сообщение
   
Страница 1 из 1
Показать сообщения за:  Поле сортировки  
Начать новую тему Ответить на тему


Сейчас этот форум просматривают: нет зарегистрированных пользователей и гости: 0


Вы не можете начинать темы
Вы не можете отвечать на сообщения
Вы не можете редактировать свои сообщения
Вы не можете удалять свои сообщения
Вы не можете добавлять вложения

Перейти:  
cron