Начать новую тему Ответить на тему
Статистика раздачи
Размер: 328.24 МБ | Добавлен: 26 мар 2019, 20:12 | Скачали: 1
Сидеров: 0  [0 байт/сек]    Личеров: 0  [0 байт/сек]
Пред. тема | След. тема 

Автор
Сообщение

СообщениеДобавлено: 26 мар 2019, 20:12 

Ответить с цитатой 

Joan Armatrading - The Very Best Of
Эта же раздача в mp3 (tracks), 320 kbps
#777#777Жанр: Singer/ Songwriter, Folk-Rock, Adult Alternative Pop-Rock
Дата выпуска: © 1991
Производитель диска, страна: A&M RECORDS LTD 397 1222
Тип: COMPILATION
Аудио кодек: FLAC
Тип рипа: tracks+.cue
Битрейт аудио: lossless
Включает: Full artwork
Продолжительность: 53:52
Источник: Моя коллекция
Риппер: Мой рип
Трэклист:
1. love and affection (remix) - 1991
2. down to zero - 1976
3. drop the pilot - 1983
4. show some emotion - 1977
5. the shouting stage - 1988
6. willow - 1977
7. rosie - 1979
8. i'm lucky - 1981
9. me, myself, i - 1980
10. (i love it when you) call me names - 1983
11. bottom to the top - 1978
12. more than one kind of love - 1990
13. the weakness in me - 1981
14. all the way from america - 1980
ALL TRACKS WRITTEN BY JOAN ARMATRADING
Код:
Exact Audio Copy V0.99 prebeta 4 from 23. January 2008
EAC extraction logfile from 12. September 2009, 23:42
Joan Armatrading / The Very Best of Joan Armatrading
Used drive  : HL-DT-STDVD-RAM GH22NP20   Adapter: 0  ID: 0
Read mode               : Secure
Utilize accurate stream : Yes
Defeat audio cache      : Yes
Make use of C2 pointers : No
Read offset correction                      : 102
Overread into Lead-In and Lead-Out          : No
Fill up missing offset samples with silence : Yes
Delete leading and trailing silent blocks   : No
Null samples used in CRC calculations       : Yes
Used interface                              : Installed external ASPI interface
Gap handling                                : Appended to previous track
Used output format              : User Defined Encoder
Selected bitrate                : 320 kBit/s
Quality                         : High
Add ID3 tag                     : No
Command line compressor         : C:\Program Files\Exact Audio Copy\Flac\flac.exe
Additional command line options : -V -8 -T "artist=%a" -T "title=%t" -T "album=%g" -T "date=%y" -T "tracknumber=%n" -T "genre=%m" %s
TOC of the extracted CD
     Track |   Start  |  Length  | Start sector | End sector
    ---------------------------------------------------------
        1  |  0:00.33 |  4:27.30 |        33    |    20087
        2  |  4:27.63 |  3:50.72 |     20088    |    37409
        3  |  8:18.60 |  3:39.23 |     37410    |    53857
        4  | 11:58.08 |  3:33.15 |     53858    |    69847
        5  | 15:31.23 |  4:32.15 |     69848    |    90262
        6  | 20:03.38 |  4:03.25 |     90263    |   108512
        7  | 24:06.63 |  3:14.15 |    108513    |   123077
        8  | 27:21.03 |  3:06.20 |    123078    |   137047
        9  | 30:27.23 |  3:20.07 |    137048    |   152054
       10  | 33:47.30 |  3:28.53 |    152055    |   167707
       11  | 37:16.08 |  3:36.12 |    167708    |   183919
       12  | 40:52.20 |  4:36.28 |    183920    |   204647
       13  | 45:28.48 |  3:34.25 |    204648    |   220722
       14  | 49:02.73 |  4:50.10 |    220723    |   242482
Track  1
     Filename D:\music\Musicgate's rips\Joan Armatrading - The Very Best Of (1991)\01 - Love and Affection (Remix).wav
     Pre-gap length  0:00:02.44
     Peak level 98.1 %
     Track quality 100.0 %
     Test CRC 34BBFC66
     Copy CRC 34BBFC66
     Accurately ripped (confidence 24)  [F01D62D3]
     Copy OK
Track  2
     Filename D:\music\Musicgate's rips\Joan Armatrading - The Very Best Of (1991)\02 - Down To Zero.wav
     Pre-gap length  0:00:02.24
     Peak level 90.7 %
     Track quality 100.0 %
     Test CRC 84DE4D61
     Copy CRC 84DE4D61
     Accurately ripped (confidence 23)  [257FF538]
     Copy OK
Track  3
     Filename D:\music\Musicgate's rips\Joan Armatrading - The Very Best Of (1991)\03 - Drop The Pilot.wav
     Pre-gap length  0:00:02.86
     Peak level 95.8 %
     Track quality 100.0 %
     Test CRC 7A630A20
     Copy CRC 7A630A20
     Accurately ripped (confidence 24)  [A6E6A3D1]
     Copy OK
Track  4
     Filename D:\music\Musicgate's rips\Joan Armatrading - The Very Best Of (1991)\04 - Show Some Emotion.wav
     Pre-gap length  0:00:02.84
     Peak level 99.6 %
     Track quality 99.9 %
     Test CRC 7653DAC3
     Copy CRC 7653DAC3
     Accurately ripped (confidence 24)  [21C25654]
     Copy OK
Track  5
     Filename D:\music\Musicgate's rips\Joan Armatrading - The Very Best Of (1991)\05 - The Shouting Stage.wav
     Pre-gap length  0:00:02.52
     Peak level 92.4 %
     Track quality 100.0 %
     Test CRC CE89D0B3
     Copy CRC CE89D0B3
     Accurately ripped (confidence 25)  [1C8C2489]
     Copy OK
Track  6
     Filename D:\music\Musicgate's rips\Joan Armatrading - The Very Best Of (1991)\06 - Willow.wav
     Pre-gap length  0:00:02.72
     Peak level 93.8 %
     Track quality 100.0 %
     Test CRC 21344501
     Copy CRC 21344501
     Accurately ripped (confidence 25)  [E577B0AB]
     Copy OK
Track  7
     Filename D:\music\Musicgate's rips\Joan Armatrading - The Very Best Of (1991)\07 - Rosie.wav
     Pre-gap length  0:00:00.72
     Peak level 97.5 %
     Track quality 100.0 %
     Test CRC C553FC15
     Copy CRC C553FC15
     Accurately ripped (confidence 25)  [F27BCCC8]
     Copy OK
Track  8
     Filename D:\music\Musicgate's rips\Joan Armatrading - The Very Best Of (1991)\08 - I'm Lucky.wav
     Pre-gap length  0:00:02.44
     Peak level 91.0 %
     Track quality 99.9 %
     Test CRC D37C8862
     Copy CRC D37C8862
     Accurately ripped (confidence 25)  [3E2FAA58]
     Copy OK
Track  9
     Filename D:\music\Musicgate's rips\Joan Armatrading - The Very Best Of (1991)\09 - Me, Myself, I.wav
     Pre-gap length  0:00:02.04
     Peak level 99.6 %
     Track quality 100.0 %
     Test CRC AC1A06D8
     Copy CRC AC1A06D8
     Accurately ripped (confidence 25)  [678A2C75]
     Copy OK
Track 10
     Filename D:\music\Musicgate's rips\Joan Armatrading - The Very Best Of (1991)\10 - (I Love It When You) Call Me Names.wav
     Pre-gap length  0:00:02.80
     Peak level 88.4 %
     Track quality 100.0 %
     Test CRC 3FE894FD
     Copy CRC 3FE894FD
     Accurately ripped (confidence 25)  [7A5D6634]
     Copy OK
Track 11
     Filename D:\music\Musicgate's rips\Joan Armatrading - The Very Best Of (1991)\11 - Bottom To The Top.wav
     Pre-gap length  0:00:02.84
     Peak level 92.0 %
     Track quality 99.9 %
     Test CRC 1344E9EE
     Copy CRC 1344E9EE
     Accurately ripped (confidence 25)  [C2002358]
     Copy OK
Track 12
     Filename D:\music\Musicgate's rips\Joan Armatrading - The Very Best Of (1991)\12 - More Than One Kind Of Love.wav
     Pre-gap length  0:00:03.33
     Peak level 86.8 %
     Track quality 99.7 %
     Test CRC 49EF1933
     Copy CRC A6A083A1
     Cannot be verified as accurate (confidence 25)  [0EA5AA71], AccurateRip returned [411B5B44]
     Copy OK
Track 13
     Filename D:\music\Musicgate's rips\Joan Armatrading - The Very Best Of (1991)\13 - The Weakness In Me.wav
     Pre-gap length  0:00:03.20
     Peak level 92.6 %
     Track quality 100.0 %
     Test CRC 46D8C317
     Copy CRC 46D8C317
     Accurately ripped (confidence 26)  [B8D34046]
     Copy OK
Track 14
     Filename D:\music\Musicgate's rips\Joan Armatrading - The Very Best Of (1991)\14 - All The Way From America.wav
     Pre-gap length  0:00:03.52
     Peak level 99.6 %
     Track quality 100.0 %
     Test CRC 66A08352
     Copy CRC 66A08352
     Accurately ripped (confidence 23)  [562520C0]
     Copy OK
13 track(s) accurately ripped
 1 track(s) could not be verified as accurate
Some tracks could not be verified as accurate
No errors occurred
End of status report
3105739335 47169404 01 - Love and Affection (Remix).wav
4007237662 40741388 02 - Down To Zero.wav
2675518833 38685740 03 - Drop The Pilot.wav
2608583458 37608524 04 - Show Some Emotion.wav
4109624027 48016124 05 - The Shouting Stage.wav
1508595358 42924044 06 - Willow.wav
3124542958 34256924 07 - Rosie.wav
2705059032 32857484 08 - I'm Lucky.wav
635811176 35296508 09 - Me, Myself, I.wav
920310182 36815900 10 - (I Love It When You) Call Me Names.wav
2813455631 38130668 11 - Bottom To The Top.wav
3831932717 48752300 12 - More Than One Kind Of Love.wav
1492990306 37808444 13 - The Weakness In Me.wav
168595538 51179564 14 - All The Way From America.wav
auCDtect: CD records authenticity detector, version 0.8.2
Copyright (c) 2004 Oleg Berngardt. All rights reserved.
Copyright (c) 2004 Alexander Djourik. All rights reserved.
------------------------------------------------------------
Processing file: [01 - Love and Affection (Remix).wav]
------------------------------------------------------------
This track looks like CDDA with probability 100%
------------------------------------------------------------
Processing file: [02 - Down To Zero.wav]
------------------------------------------------------------
This track looks like CDDA with probability 100%
------------------------------------------------------------
Processing file: [03 - Drop The Pilot.wav]
------------------------------------------------------------
This track looks like CDDA with probability 99%
------------------------------------------------------------
Processing file: [04 - Show Some Emotion.wav]
------------------------------------------------------------
This track looks like CDDA with probability 100%
------------------------------------------------------------
Processing file: [05 - The Shouting Stage.wav]
------------------------------------------------------------
This track looks like CDDA with probability 43%
------------------------------------------------------------
Processing file: [06 - Willow.wav]
------------------------------------------------------------
This track looks like CDDA with probability 100%
------------------------------------------------------------
Processing file: [07 - Rosie.wav]
------------------------------------------------------------
This track looks like CDDA with probability 100%
------------------------------------------------------------
Processing file: [08 - I'm Lucky.wav]
------------------------------------------------------------
This track looks like CDDA with probability 100%
------------------------------------------------------------
Processing file: [09 - Me, Myself, I.wav]
------------------------------------------------------------
This track looks like CDDA with probability 100%
------------------------------------------------------------
Processing file: [10 - (I Love It When You) Call Me Names.wav]
------------------------------------------------------------
This track looks like CDDA with probability 100%
------------------------------------------------------------
Processing file: [11 - Bottom To The Top.wav]
------------------------------------------------------------
This track looks like CDDA with probability 100%
------------------------------------------------------------
Processing file: [12 - More Than One Kind Of Love.wav]
------------------------------------------------------------
This track looks like CDDA with probability 100%
------------------------------------------------------------
Processing file: [13 - The Weakness In Me.wav]
------------------------------------------------------------
This track looks like CDDA with probability 100%
------------------------------------------------------------
Processing file: [14 - All The Way From America.wav]
------------------------------------------------------------
This track looks like CDDA with probability 100%
------------------------------------------------------------
Final Conclusion:
------------------------------------------------------------
These tracks looks like CDDA with probability 100%
Я не сидирую все свои раздачи подолгу, только новые (до 3х первых сидов)
Предлагаю скачавшим максимально долго оставаться на раздаче - весь рейтинг будет ваш
Если нет сидов или раздача находится в архиве, пришлите письмо, и я вернусь
Правила, инструкции, FAQ!!!
Торрент  Добавлен [26 мар 2019, 20:12] Скачать торрент Магнет ссылка
Скачать торрент
[ Размер 14.75 КБ / Просмотров 7 ]

Статус
Проверен 
 
Размер  328.24 МБ
Приватный: Нет (DHT включён)
.torrent скачан  1
 


     Отправить личное сообщение
   
Страница 1 из 1
Показать сообщения за:  Поле сортировки  
Начать новую тему Ответить на тему


Сейчас этот форум просматривают: нет зарегистрированных пользователей и гости: 0


Вы не можете начинать темы
Вы не можете отвечать на сообщения
Вы не можете редактировать свои сообщения
Вы не можете удалять свои сообщения
Вы не можете добавлять вложения

Перейти:  
cron