Начать новую тему Ответить на тему
Статистика раздачи
Размер: 348.82 МБ | Добавлен: 26 мар 2019, 20:32 | Скачали: 0
Сидеров: 0  [0 байт/сек]    Личеров: 0  [0 байт/сек]
Пред. тема | След. тема 

Автор
Сообщение

СообщениеДобавлено: 26 мар 2019, 20:32 

Ответить с цитатой 

Colin Hay - Gathering Mercury (Limited Edition)

Жанр: Adult Alternative Pop/Rock
Год издания диска: 2011
Издатель (лейбл): Lazy Eye Records America, Inc.
Номер по каталогу: 74551
Страна: Australia
Аудио кодек: FLAC (*.flac)
Тип рипа: tracks+.cue
Битрейт аудио: lossless
Продолжительность: 55:42
Источник (релизер): israbox (artmuss)
Наличие сканов в содержимом раздачи: нет
01. Send Somebody (04:37)
02. Family Man (04:24)
03. Invisible (04:03)
04. Dear Father (03:19)
05. Gathering Mercury (04:21)
06. Half A Million Angels (04:03)
07. Far From Home (03:53)
08. Where The Sky Is Blue (04:05)
09. A Simple Song (03:30)
10. Goodnight Romeo (02:49)
11. Send Somebody (Stripped Mix) (04:35)
12. Invisible (Stripped Mix) (03:51)
13. Half A Million Angels (Stripped Mix) (04:03)
14. Where The Sky Is Blue (Stripped Mix) (04:05)
Код:
Exact Audio Copy V1.0 beta 1 from 15. November 2010
EAC extraction logfile from 11. May 2011, 20:38
Colin Hay / Gathering Mercury
Used drive  : ASUS    DRW-24B1LT   Adapter: 0  ID: 1
Read mode               : Secure
Utilize accurate stream : Yes
Defeat audio cache      : Yes
Make use of C2 pointers : No
Read offset correction                      : 6
Overread into Lead-In and Lead-Out          : No
Fill up missing offset samples with silence : Yes
Delete leading and trailing silent blocks   : No
Null samples used in CRC calculations       : Yes
Used interface                              : Native Win32 interface for Win NT & 2000
Gap handling                                : Appended to previous track
Used output format              : User Defined Encoder
Selected bitrate                : 768 kBit/s
Quality                         : High
Add ID3 tag                     : No
Command line compressor         : F:\Exact Audio Copy\FLAC\flac.exe
Additional command line options : -V -8 -T "artist=%a" -T "title=%t" -T "album=%g" -T "date=%y" -T "tracknumber=%n" -T "genre=%m" %s
TOC of the extracted CD
     Track |   Start  |  Length  | Start sector | End sector
    ---------------------------------------------------------
        1  |  0:00.00 |  4:37.55 |         0    |    20829
        2  |  4:37.55 |  4:24.60 |     20830    |    40689
        3  |  9:02.40 |  4:03.05 |     40690    |    58919
        4  | 13:05.45 |  3:19.18 |     58920    |    73862
        5  | 16:24.63 |  4:21.02 |     73863    |    93439
        6  | 20:45.65 |  4:03.09 |     93440    |   111673
        7  | 24:48.74 |  3:53.02 |    111674    |   129150
        8  | 28:42.01 |  4:05.36 |    129151    |   147561
        9  | 32:47.37 |  3:30.04 |    147562    |   163315
       10  | 36:17.41 |  2:49.46 |    163316    |   176036
       11  | 39:07.12 |  4:35.16 |    176037    |   196677
       12  | 43:42.28 |  3:51.41 |    196678    |   214043
       13  | 47:33.69 |  4:03.39 |    214044    |   232307
       14  | 51:37.33 |  4:05.35 |    232308    |   250717
Track  1
     Filename G:\demonoid\Colin Hay - 2011 - Gathering Mercury\01 - Send Somebody .wav
     Pre-gap length  0:00:02.00
     Peak level 96.4 %
     Extraction speed 3.5 X
     Track quality 100.0 %
     Test CRC 18A2FCCE
     Copy CRC 18A2FCCE
     Track not present in AccurateRip database
     Copy OK
Track  2
     Filename G:\demonoid\Colin Hay - 2011 - Gathering Mercury\02 - Family Man .wav
     Pre-gap length  0:00:01.38
     Peak level 100.0 %
     Extraction speed 3.9 X
     Track quality 100.0 %
     Test CRC FC2D0392
     Copy CRC FC2D0392
     Track not present in AccurateRip database
     Copy OK
Track  3
     Filename G:\demonoid\Colin Hay - 2011 - Gathering Mercury\03 - Invisible .wav
     Pre-gap length  0:00:01.88
     Peak level 96.7 %
     Extraction speed 3.3 X
     Track quality 99.9 %
     Test CRC 97C85266
     Copy CRC 97C85266
     Track not present in AccurateRip database
     Copy OK
Track  4
     Filename G:\demonoid\Colin Hay - 2011 - Gathering Mercury\04 - Dear Father .wav
     Pre-gap length  0:00:01.64
     Peak level 73.9 %
     Extraction speed 3.3 X
     Track quality 99.9 %
     Test CRC 2A04F4F5
     Copy CRC 2A04F4F5
     Track not present in AccurateRip database
     Copy OK
Track  5
     Filename G:\demonoid\Colin Hay - 2011 - Gathering Mercury\05 - Gathering Mercury .wav
     Pre-gap length  0:00:01.92
     Peak level 98.3 %
     Extraction speed 4.7 X
     Track quality 100.0 %
     Test CRC 5C3EDEE2
     Copy CRC 5C3EDEE2
     Track not present in AccurateRip database
     Copy OK
Track  6
     Filename G:\demonoid\Colin Hay - 2011 - Gathering Mercury\06 - Half A Million Angels .wav
     Pre-gap length  0:00:01.17
     Peak level 89.0 %
     Extraction speed 5.0 X
     Track quality 100.0 %
     Test CRC E62DE8AC
     Copy CRC E62DE8AC
     Track not present in AccurateRip database
     Copy OK
Track  7
     Filename G:\demonoid\Colin Hay - 2011 - Gathering Mercury\07 - Far From Home .wav
     Pre-gap length  0:00:01.42
     Peak level 100.0 %
     Extraction speed 5.2 X
     Track quality 100.0 %
     Test CRC 56ADDDB8
     Copy CRC 56ADDDB8
     Track not present in AccurateRip database
     Copy OK
Track  8
     Filename G:\demonoid\Colin Hay - 2011 - Gathering Mercury\08 - Where The Sky Is Blue .wav
     Pre-gap length  0:00:01.98
     Peak level 89.5 %
     Extraction speed 5.5 X
     Track quality 100.0 %
     Test CRC B974D35A
     Copy CRC B974D35A
     Track not present in AccurateRip database
     Copy OK
Track  9
     Filename G:\demonoid\Colin Hay - 2011 - Gathering Mercury\09 - A Simple Song .wav
     Pre-gap length  0:00:01.60
     Peak level 88.6 %
     Extraction speed 5.6 X
     Track quality 100.0 %
     Test CRC A56BD40C
     Copy CRC A56BD40C
     Track not present in AccurateRip database
     Copy OK
Track 10
     Filename G:\demonoid\Colin Hay - 2011 - Gathering Mercury\10 - Goodnight Romeo .wav
     Pre-gap length  0:00:02.24
     Peak level 82.6 %
     Extraction speed 5.5 X
     Track quality 100.0 %
     Test CRC 4C1D1A58
     Copy CRC 4C1D1A58
     Track not present in AccurateRip database
     Copy OK
Track 11
     Filename G:\demonoid\Colin Hay - 2011 - Gathering Mercury\11 - Send Somebody (Stripped Mix) .wav
     Pre-gap length  0:00:06.66
     Peak level 97.5 %
     Extraction speed 6.2 X
     Track quality 100.0 %
     Test CRC F42005D7
     Copy CRC F42005D7
     Track not present in AccurateRip database
     Copy OK
Track 12
     Filename G:\demonoid\Colin Hay - 2011 - Gathering Mercury\12 - Invisible (Stripped Mix) .wav
     Pre-gap length  0:00:01.69
     Peak level 97.3 %
     Extraction speed 6.2 X
     Track quality 100.0 %
     Test CRC D4497C0D
     Copy CRC D4497C0D
     Track not present in AccurateRip database
     Copy OK
Track 13
     Filename G:\demonoid\Colin Hay - 2011 - Gathering Mercury\13 - Half A Million Angels (Stripped Mix) .wav
     Pre-gap length  0:00:02.56
     Peak level 94.4 %
     Extraction speed 6.6 X
     Track quality 100.0 %
     Test CRC D1AC4DA7
     Copy CRC D1AC4DA7
     Track not present in AccurateRip database
     Copy OK
Track 14
     Filename G:\demonoid\Colin Hay - 2011 - Gathering Mercury\14 - Where The Sky Is Blue (Stripped Mix) .wav
     Pre-gap length  0:00:02.89
     Peak level 97.4 %
     Extraction speed 6.7 X
     Track quality 100.0 %
     Test CRC 5D1D27B0
     Copy CRC 5D1D27B0
     Track not present in AccurateRip database
     Copy OK
None of the tracks are present in the AccurateRip database
No errors occurred
End of status report
==== Log checksum EB31744CEAA23070BED34CD00DFF6AD174B7B3CC6A970079ADF19D92568F3C3C ====
Код:
REM GENRE Pop-Folk
REM DATE 2011
REM DISCID ED0D0E0E
REM COMMENT "ExactAudioCopy v1.0b1"
PERFORMER "Colin Hay"
TITLE "Gathering Mercury"
FILE "Colin Hay - 2011 - Gathering Mercury\01 - Send Somebody .wav" WAVE
  TRACK 01 AUDIO
    TITLE "Send Somebody"
    PERFORMER "Colin Hay"
    INDEX 01 00:00:00
  TRACK 02 AUDIO
    TITLE "Family Man"
    PERFORMER "Colin Hay"
    INDEX 00 04:36:26
FILE "Colin Hay - 2011 - Gathering Mercury\02 - Family Man .wav" WAVE
    INDEX 01 00:00:00
  TRACK 03 AUDIO
    TITLE "Invisible"
    PERFORMER "Colin Hay"
    INDEX 00 04:22:69
FILE "Colin Hay - 2011 - Gathering Mercury\03 - Invisible .wav" WAVE
    INDEX 01 00:00:00
  TRACK 04 AUDIO
    TITLE "Dear Father"
    PERFORMER "Colin Hay"
    INDEX 00 04:01:32
FILE "Colin Hay - 2011 - Gathering Mercury\04 - Dear Father .wav" WAVE
    INDEX 01 00:00:00
  TRACK 05 AUDIO
    TITLE "Gathering Mercury"
    PERFORMER "Colin Hay"
    INDEX 00 03:17:24
FILE "Colin Hay - 2011 - Gathering Mercury\05 - Gathering Mercury .wav" WAVE
    INDEX 01 00:00:00
  TRACK 06 AUDIO
    TITLE "Half A Million Angels"
    PERFORMER "Colin Hay"
    INDEX 00 04:19:64
FILE "Colin Hay - 2011 - Gathering Mercury\06 - Half A Million Angels .wav" WAVE
    INDEX 01 00:00:00
  TRACK 07 AUDIO
    TITLE "Far From Home"
    PERFORMER "Colin Hay"
    INDEX 00 04:01:52
FILE "Colin Hay - 2011 - Gathering Mercury\07 - Far From Home .wav" WAVE
    INDEX 01 00:00:00
  TRACK 08 AUDIO
    TITLE "Where The Sky Is Blue"
    PERFORMER "Colin Hay"
    INDEX 00 03:51:03
FILE "Colin Hay - 2011 - Gathering Mercury\08 - Where The Sky Is Blue .wav" WAVE
    INDEX 01 00:00:00
  TRACK 09 AUDIO
    TITLE "A Simple Song"
    PERFORMER "Colin Hay"
    INDEX 00 04:03:66
FILE "Colin Hay - 2011 - Gathering Mercury\09 - A Simple Song .wav" WAVE
    INDEX 01 00:00:00
  TRACK 10 AUDIO
    TITLE "Goodnight Romeo"
    PERFORMER "Colin Hay"
    INDEX 00 03:27:61
FILE "Colin Hay - 2011 - Gathering Mercury\10 - Goodnight Romeo .wav" WAVE
    INDEX 01 00:00:00
  TRACK 11 AUDIO
    TITLE "Send Somebody (Stripped Mix)"
    PERFORMER "Colin Hay"
    INDEX 00 02:42:71
FILE "Colin Hay - 2011 - Gathering Mercury\11 - Send Somebody (Stripped Mix) .wav" WAVE
    INDEX 01 00:00:00
  TRACK 12 AUDIO
    TITLE "Invisible (Stripped Mix)"
    PERFORMER "Colin Hay"
    INDEX 00 04:33:39
FILE "Colin Hay - 2011 - Gathering Mercury\12 - Invisible (Stripped Mix) .wav" WAVE
    INDEX 01 00:00:00
  TRACK 13 AUDIO
    TITLE "Half A Million Angels (Stripped Mix)"
    PERFORMER "Colin Hay"
    INDEX 00 03:48:74
FILE "Colin Hay - 2011 - Gathering Mercury\13 - Half A Million Angels (Stripped Mix) .wav" WAVE
    INDEX 01 00:00:00
  TRACK 14 AUDIO
    TITLE "Where The Sky Is Blue (Stripped Mix)"
    PERFORMER "Colin Hay"
    INDEX 00 04:00:47
FILE "Colin Hay - 2011 - Gathering Mercury\14 - Where The Sky Is Blue (Stripped Mix) .wav" WAVE
    INDEX 01 00:00:00
Правила, инструкции, FAQ!!!
Торрент  Добавлен [26 мар 2019, 20:32] Скачать торрент Магнет ссылка
Скачать торрент
[ Размер 15.11 КБ / Просмотров 1 ]

Статус
Проверен 
 
Размер  348.82 МБ
Приватный: Нет (DHT включён)
.torrent скачан  0
 


     Отправить личное сообщение
   
Страница 1 из 1
Показать сообщения за:  Поле сортировки  
Начать новую тему Ответить на тему


Сейчас этот форум просматривают: нет зарегистрированных пользователей и гости: 0


Вы не можете начинать темы
Вы не можете отвечать на сообщения
Вы не можете редактировать свои сообщения
Вы не можете удалять свои сообщения
Вы не можете добавлять вложения

Перейти:  
cron