Начать новую тему Ответить на тему
Статистика раздачи
Размер: 264.7 МБ | Добавлен: 26 мар 2019, 19:09 | Скачали: 0
Сидеров: 1  [0 байт/сек]    Личеров: 0  [0 байт/сек]
Пред. тема | След. тема 

Автор
Сообщение

СообщениеДобавлено: 26 мар 2019, 19:09 

Ответить с цитатой 

Tristan Prettyman - Hello...X
Жанр: Acoustic Rock, Pop
Год выпуска диска: 2008
Производитель диска: USA
Аудио кодек: FLAC
Тип рипа: tracks+.cue
Битрейт аудио: lossless
Продолжительность: 44:01
Треклист:
01 - Hello
02 - Echo
03 - California Girl
04 - Madly
05 - Blindfold
06 - Handshake
07 - War Out Of Peace
08 - You Got Me
09 - Don't Work Yourself Up
10 - A Little Bit
11 - Interviews
12 - In Bloom
Доп. информация:
Код:
Exact Audio Copy V0.99 prebeta 5 from 4. May 2009
EAC extraction logfile from 12. June 2010, 8:41
Tristan Prettyman / Hello...X
Used drive  : HP      DVD Writer 1070d   Adapter: 1  ID: 0
Read mode               : Secure
Utilize accurate stream : Yes
Defeat audio cache      : Yes
Make use of C2 pointers : No
Read offset correction                      : 6
Overread into Lead-In and Lead-Out          : No
Fill up missing offset samples with silence : Yes
Delete leading and trailing silent blocks   : No
Null samples used in CRC calculations       : No
Normalize to                                : 98 %
Used interface                              : Native Win32 interface for Win NT & 2000
Gap handling                                : Appended to previous track
Used output format              : User Defined Encoder
Selected bitrate                : 768 kBit/s
Quality                         : High
Add ID3 tag                     : No
Command line compressor         : C:\Program Files (x86)\Exact Audio Copy\FLAC\FLAC.EXE
Additional command line options : -6 -V -T "ARTIST=%a" -T "TITLE=%t" -T "ALBUM=%g" -T "DATE=%y" -T "TRACKNUMBER=%n" -T "GENRE=%m" -T "COMMENT=%e" %s -o %d
TOC of the extracted CD
     Track |   Start  |  Length  | Start sector | End sector
    ---------------------------------------------------------
        1  |  0:00.00 |  3:25.14 |         0    |    15388
        2  |  3:25.14 |  3:38.02 |     15389    |    31740
        3  |  7:03.16 |  3:57.53 |     31741    |    49568
        4  | 11:00.69 |  3:18.51 |     49569    |    64469
        5  | 14:19.45 |  3:58.21 |     64470    |    82340
        6  | 18:17.66 |  3:47.07 |     82341    |    99372
        7  | 22:04.73 |  3:49.29 |     99373    |   116576
        8  | 25:54.27 |  3:24.16 |    116577    |   131892
        9  | 29:18.43 |  3:40.63 |    131893    |   148455
       10  | 32:59.31 |  3:39.49 |    148456    |   164929
       11  | 36:39.05 |  3:35.66 |    164930    |   181120
       12  | 40:14.71 |  3:46.67 |    181121    |   198137
Track  1
     Filename E:\Music\Ripped CDs\01 Hello.wav
     Pre-gap length  0:00:02.00
     Peak level 98.8 %
     Track quality 99.9 %
     Copy CRC 9505A442
     Accurately ripped (confidence 20)  [35D7DA48]
     Copy OK
Track  2
     Filename E:\Music\Ripped CDs\02 Echo.wav
     Peak level 98.8 %
     Track quality 100.0 %
     Copy CRC F7A59FD1
     Accurately ripped (confidence 20)  [B8352798]
     Copy OK
Track  3
     Filename E:\Music\Ripped CDs\03 California Girl.wav
     Peak level 98.8 %
     Track quality 100.0 %
     Copy CRC 160F1034
     Accurately ripped (confidence 20)  [266F2828]
     Copy OK
Track  4
     Filename E:\Music\Ripped CDs\04 Madly.wav
     Pre-gap length  0:00:00.02
     Peak level 98.8 %
     Track quality 100.0 %
     Copy CRC 6CD34899
     Accurately ripped (confidence 20)  [D3450EED]
     Copy OK
Track  5
     Filename E:\Music\Ripped CDs\05 Blindfold.wav
     Pre-gap length  0:00:00.02
     Peak level 98.8 %
     Track quality 100.0 %
     Copy CRC 3F9E31F0
     Accurately ripped (confidence 20)  [82A89E9D]
     Copy OK
Track  6
     Filename E:\Music\Ripped CDs\06 Handshake.wav
     Peak level 98.8 %
     Track quality 100.0 %
     Copy CRC 88118C7F
     Accurately ripped (confidence 19)  [66913FAD]
     Copy OK
Track  7
     Filename E:\Music\Ripped CDs\07 War Out Of Peace.wav
     Peak level 98.8 %
     Track quality 100.0 %
     Copy CRC 2229398A
     Accurately ripped (confidence 20)  [893B4456]
     Copy OK
Track  8
     Filename E:\Music\Ripped CDs\08 You Got Me.wav
     Peak level 98.8 %
     Track quality 99.9 %
     Copy CRC 89BDEEF6
     Accurately ripped (confidence 19)  [232A945B]
     Copy OK
Track  9
     Filename E:\Music\Ripped CDs\09 Don't Work Yourself Up.wav
     Pre-gap length  0:00:00.01
     Peak level 98.8 %
     Track quality 99.9 %
     Copy CRC 13402F77
     Accurately ripped (confidence 19)  [055982D1]
     Copy OK
Track 10
     Filename E:\Music\Ripped CDs\10 Just A Little Bit.wav
     Peak level 97.7 %
     Track quality 100.0 %
     Copy CRC 2E188A19
     Accurately ripped (confidence 19)  [AC9D9815]
     Copy OK
Track 11
     Filename E:\Music\Ripped CDs\11 Interviews.wav
     Pre-gap length  0:00:00.02
     Peak level 98.8 %
     Track quality 100.0 %
     Copy CRC 27BFD9BE
     Accurately ripped (confidence 19)  [85637F69]
     Copy OK
Track 12
     Filename E:\Music\Ripped CDs\12 In Bloom.wav
     Pre-gap length  0:00:00.01
     Peak level 98.8 %
     Track quality 100.0 %
     Copy CRC 05DF086C
     Accurately ripped (confidence 19)  [F26E2D81]
     Copy OK
All tracks accurately ripped
No errors occurred
End of status report
Релиз скачан с
Правила, инструкции, FAQ!!!
Торрент  Добавлен [26 мар 2019, 19:09] Скачать торрент Магнет ссылка
Скачать торрент
[ Размер 11.47 КБ / Просмотров 1 ]

Статус
Проверен 
 
Размер  264.7 МБ
Приватный: Нет (DHT включён)
.torrent скачан  0
 


     Отправить личное сообщение
   
Страница 1 из 1
Показать сообщения за:  Поле сортировки  
Начать новую тему Ответить на тему


Сейчас этот форум просматривают: нет зарегистрированных пользователей и гости: 0


Вы не можете начинать темы
Вы не можете отвечать на сообщения
Вы не можете редактировать свои сообщения
Вы не можете удалять свои сообщения
Вы не можете добавлять вложения

Перейти:  
cron