Начать новую тему Ответить на тему
Статистика раздачи
Размер: 327.29 МБ | Добавлен: 26 мар 2019, 19:36 | Скачали: 0
Сидеров: 0  [0 байт/сек]    Личеров: 0  [0 байт/сек]
Пред. тема | След. тема 

Автор
Сообщение

СообщениеДобавлено: 26 мар 2019, 19:36 

Ответить с цитатой 

Milow / Modern Heart (Deluxe)
Жанр: Acoustic, Pop Rock
Носитель: CD
Страна-производитель диска (релиза): EU
Год издания: 2016
Издатель (лейбл): Homerun Records
Номер по каталогу: 889853175628
Страна исполнителя (группы): Belgium
Аудиокодек: FLAC (*.flac)
Тип рипа: image+.cue
Битрейт аудио: lossless
Продолжительность: 00:51:45
Источник (релизер): usenet
Наличие сканов в содержимом раздачи: да
Треклист:
01. Waiting Around For Love (4:17)
02. Lonely One (3:24)
03. Howling At The Moon (3:06)
04. The Fast Lane (3:41)
05. Love Like That Is Easy (3:24)
06. No No No (3:10)
07. Running Blind (4:15)
08. Really Rich (4:01)
09. Way Up High (6:02)
10. The Fast Lane (Live) (2:59)
11. No No No (Live) (3:31)
12. Love Like That Is Easy (Live) (3:25)
13. Howling At The Moon (Live) (3:20)
14. Running Blind (Live) (3:11)
Код:
Exact Audio Copy V1.1 from 23. June 2015
EAC extraction logfile from 12. May 2016, 18:04
Milow / Modern Heart (Deluxe Edition)
Used drive  : HL-DT-STDVDRAM GH24NSD1   Adapter: 0  ID: 0
Read mode               : Secure
Utilize accurate stream : Yes
Defeat audio cache      : Yes
Make use of C2 pointers : No
Read offset correction                      : 6
Overread into Lead-In and Lead-Out          : No
Fill up missing offset samples with silence : Yes
Delete leading and trailing silent blocks   : No
Null samples used in CRC calculations       : Yes
Used interface                              : Installed external ASPI interface
Used output format : Internal WAV Routines
Sample format      : 44.100 Hz; 16 Bit; Stereo
TOC of the extracted CD
     Track |   Start  |  Length  | Start sector | End sector
    ---------------------------------------------------------
        1  |  0:00.00 |  4:16.64 |         0    |    19263
        2  |  4:16.64 |  3:23.51 |     19264    |    34539
        3  |  7:40.40 |  3:05.59 |     34540    |    48473
        4  | 10:46.24 |  3:41.18 |     48474    |    65066
        5  | 14:27.42 |  3:23.69 |     65067    |    80360
        6  | 17:51.36 |  3:10.24 |     80361    |    94634
        7  | 21:01.60 |  4:14.45 |     94635    |   113729
        8  | 25:16.30 |  4:01.02 |    113730    |   131806
        9  | 29:17.32 |  6:01.48 |    131807    |   158929
       10  | 35:19.05 |  2:59.08 |    158930    |   172362
       11  | 38:18.13 |  3:30.51 |    172363    |   188163
       12  | 41:48.64 |  3:24.65 |    188164    |   203528
       13  | 45:13.54 |  3:20.03 |    203529    |   218531
       14  | 48:33.57 |  3:11.37 |    218532    |   232893
Range status and errors
Selected range
     Filename E:\SPOTNET\Milow - Modern Heart (Deluxe) (EAC)\Milow - Modern Heart (Deluxe Edition).wav
     Peak level 100.0 %
     Extraction speed 6.7 X
     Range quality 100.0 %
     Test CRC 48E1FB31
     Copy CRC 48E1FB31
     Copy OK
No errors occurred
AccurateRip summary
Track  1  not present in database
Track  2  not present in database
Track  3  not present in database
Track  4  not present in database
Track  5  not present in database
Track  6  not present in database
Track  7  not present in database
Track  8  not present in database
Track  9  not present in database
Track 10  not present in database
Track 11  not present in database
Track 12  not present in database
Track 13  not present in database
Track 14  not present in database
None of the tracks are present in the AccurateRip database
End of status report
Код:
REM GENRE Pop
REM DATE 2016
REM DISCID B50C210E
REM COMMENT "ExactAudioCopy v1.1"
PERFORMER "Milow"
TITLE "Modern Heart (Deluxe Edition)"
FILE "Milow - Modern Heart (Deluxe Edition).wav" WAVE
  TRACK 01 AUDIO
    TITLE "Waiting Around For Love"
    PERFORMER "Milow"
    FLAGS DCP
    INDEX 01 00:00:00
  TRACK 02 AUDIO
    TITLE "Lonely One"
    PERFORMER "Milow"
    FLAGS DCP
    INDEX 01 04:16:64
  TRACK 03 AUDIO
    TITLE "Howling At The Moon"
    PERFORMER "Milow"
    FLAGS DCP
    INDEX 01 07:40:40
  TRACK 04 AUDIO
    TITLE "The Fast Lane"
    PERFORMER "Milow"
    FLAGS DCP
    INDEX 01 10:46:24
  TRACK 05 AUDIO
    TITLE "Love Like That Is Easy"
    PERFORMER "Milow"
    FLAGS DCP
    INDEX 01 14:27:42
  TRACK 06 AUDIO
    TITLE "No No No"
    PERFORMER "Milow"
    FLAGS DCP
    INDEX 01 17:51:36
  TRACK 07 AUDIO
    TITLE "Running Blind"
    PERFORMER "Milow"
    FLAGS DCP
    INDEX 01 21:01:60
  TRACK 08 AUDIO
    TITLE "Really Rich"
    PERFORMER "Milow"
    FLAGS DCP
    INDEX 01 25:16:30
  TRACK 09 AUDIO
    TITLE "Way Up High"
    PERFORMER "Milow"
    FLAGS DCP
    INDEX 01 29:17:32
  TRACK 10 AUDIO
    TITLE "The Fast Lane (Live)"
    PERFORMER "Milow"
    FLAGS DCP
    INDEX 01 35:19:05
  TRACK 11 AUDIO
    TITLE "No No No (Live)"
    PERFORMER "Milow"
    FLAGS DCP
    INDEX 01 38:18:13
  TRACK 12 AUDIO
    TITLE "Love Like That Is Easy (Live)"
    PERFORMER "Milow"
    FLAGS DCP
    INDEX 01 41:48:64
  TRACK 13 AUDIO
    TITLE "Howling At The Moon (Live)"
    PERFORMER "Milow"
    FLAGS DCP
    INDEX 01 45:13:54
  TRACK 14 AUDIO
    TITLE "Running Blind (Live)"
    PERFORMER "Milow"
    FLAGS DCP
    INDEX 01 48:33:57
Код:
fooCDtect - foobar2000 + auCDtect, baralgin.
auCDtect: CD records authenticity detector, version 0.8.2
Copyright (c) 2004 Oleg Berngardt. All rights reserved.
Copyright (c) 2004 Alexander Djourik. All rights reserved.
     mode: 0
===========================================
    Track: 01. Milow - Waiting Around For Love
Processing file: [01. Milow - Waiting Around For Love.aucdtect]
Detected average hi-boundary frequency: 2.118273e+004 Hz
Detected average lo-boundary frequency: 1.806005e+004 Hz
Detected average hi-cut frequency: 2.144165e+004 Hz
Detected average lo-cut frequency: 1.994214e+004 Hz
Maximum probablis boundary frequency: 2.140100e+004 Hz
Coefficient of nonlinearity of a phase: 1.603902e-001
First order smothness: 7.229754e-001
Second order smothness: 6.687431e-001
------------------------------------------------------------
This track looks like CDDA with probability 100%
===========================================
    Track: 02. Milow - Lonely One
Processing file: [02. Milow - Lonely One.aucdtect]
Detected average hi-boundary frequency: 2.123030e+004 Hz
Detected average lo-boundary frequency: 1.866488e+004 Hz
Detected average hi-cut frequency: 2.159495e+004 Hz
Detected average lo-cut frequency: 1.971153e+004 Hz
Maximum probablis boundary frequency: 2.157900e+004 Hz
Coefficient of nonlinearity of a phase: 5.612122e-001
First order smothness: 6.237304e-001
Second order smothness: 6.809788e-001
------------------------------------------------------------
This track looks like CDDA with probability 100%
===========================================
    Track: 03. Milow - Howling At The Moon
Processing file: [03. Milow - Howling At The Moon.aucdtect]
Detected average hi-boundary frequency: 2.033764e+004 Hz
Detected average lo-boundary frequency: 1.366782e+004 Hz
Detected average hi-cut frequency: 2.161948e+004 Hz
Detected average lo-cut frequency: 1.172896e+004 Hz
Maximum probablis boundary frequency: 2.189100e+004 Hz
Coefficient of nonlinearity of a phase: 5.994411e-002
First order smothness: 3.783108e-001
Second order smothness: 6.456772e-001
------------------------------------------------------------
This track looks like CDDA with probability 100%
===========================================
    Track: 04. Milow - The Fast Lane
Processing file: [04. Milow - The Fast Lane.aucdtect]
Detected average hi-boundary frequency: 2.118395e+004 Hz
Detected average lo-boundary frequency: 1.927687e+004 Hz
Detected average hi-cut frequency: 2.142433e+004 Hz
Detected average lo-cut frequency: 2.019721e+004 Hz
Maximum probablis boundary frequency: 2.133700e+004 Hz
Coefficient of nonlinearity of a phase: 9.231813e-002
First order smothness: 6.882081e-001
Second order smothness: 6.651280e-001
------------------------------------------------------------
Could not qualify the source of this track.
===========================================
    Track: 05. Milow - Love Like That Is Easy
Processing file: [05. Milow - Love Like That Is Easy.aucdtect]
Detected average hi-boundary frequency: 2.116539e+004 Hz
Detected average lo-boundary frequency: 1.888784e+004 Hz
Detected average hi-cut frequency: 2.140443e+004 Hz
Detected average lo-cut frequency: 2.059106e+004 Hz
Maximum probablis boundary frequency: 2.133100e+004 Hz
Coefficient of nonlinearity of a phase: 3.442500e-001
First order smothness: 7.003643e-001
Second order smothness: 6.630237e-001
------------------------------------------------------------
This track looks like CDDA with probability 99%
===========================================
    Track: 06. Milow - No No No
Processing file: [06. Milow - No No No.aucdtect]
Detected average hi-boundary frequency: 2.094988e+004 Hz
Detected average lo-boundary frequency: 1.805472e+004 Hz
Detected average hi-cut frequency: 2.129183e+004 Hz
Detected average lo-cut frequency: 1.646045e+004 Hz
Maximum probablis boundary frequency: 2.128800e+004 Hz
Coefficient of nonlinearity of a phase: 3.453538e-002
First order smothness: 6.258604e-001
Second order smothness: 5.673550e-001
------------------------------------------------------------
This track looks like MPEG with probability 95%
===========================================
    Track: 07. Milow - Running Blind
Processing file: [07. Milow - Running Blind.aucdtect]
Detected average hi-boundary frequency: 2.105084e+004 Hz
Detected average lo-boundary frequency: 1.854520e+004 Hz
Detected average hi-cut frequency: 2.151465e+004 Hz
Detected average lo-cut frequency: 1.828443e+004 Hz
Maximum probablis boundary frequency: 2.152500e+004 Hz
Coefficient of nonlinearity of a phase: 1.787443e-001
First order smothness: 5.728440e-001
Second order smothness: 6.414679e-001
------------------------------------------------------------
This track looks like CDDA with probability 100%
===========================================
    Track: 08. Milow - Really Rich
Processing file: [08. Milow - Really Rich.aucdtect]
Detected average hi-boundary frequency: 2.112391e+004 Hz
Detected average lo-boundary frequency: 1.880950e+004 Hz
Detected average hi-cut frequency: 2.140214e+004 Hz
Detected average lo-cut frequency: 1.996891e+004 Hz
Maximum probablis boundary frequency: 2.131500e+004 Hz
Coefficient of nonlinearity of a phase: 7.157814e-002
First order smothness: 6.420039e-001
Second order smothness: 6.705202e-001
------------------------------------------------------------
This track looks like MPEG with probability 79%
===========================================
    Track: 09. Milow - Way Up High
Processing file: [09. Milow - Way Up High.aucdtect]
Detected average hi-boundary frequency: 2.115222e+004 Hz
Detected average lo-boundary frequency: 1.853602e+004 Hz
Detected average hi-cut frequency: 2.143580e+004 Hz
Detected average lo-cut frequency: 2.054318e+004 Hz
Maximum probablis boundary frequency: 2.138000e+004 Hz
Coefficient of nonlinearity of a phase: 1.516660e-001
First order smothness: 6.328917e-001
Second order smothness: 7.282411e-001
------------------------------------------------------------
This track looks like MPEG with probability 79%
===========================================
    Track: 10. Milow - The Fast Lane (Live)
Processing file: [10. Milow - The Fast Lane (Live).aucdtect]
Detected average hi-boundary frequency: 2.013365e+004 Hz
Detected average lo-boundary frequency: 1.286205e+004 Hz
Detected average hi-cut frequency: 2.196324e+004 Hz
Detected average lo-cut frequency: 1.580550e+004 Hz
Maximum probablis boundary frequency: 2.189100e+004 Hz
Coefficient of nonlinearity of a phase: 1.127159e+000
First order smothness: 3.303942e-001
Second order smothness: 8.205394e-001
------------------------------------------------------------
This track looks like CDDA with probability 100%
===========================================
    Track: 11. Milow - No No No (Live)
Processing file: [11. Milow - No No No (Live).aucdtect]
Detected average hi-boundary frequency: 2.091421e+004 Hz
Detected average lo-boundary frequency: 1.516181e+004 Hz
Detected average hi-cut frequency: 2.187876e+004 Hz
Detected average lo-cut frequency: 1.878641e+004 Hz
Maximum probablis boundary frequency: 2.145000e+004 Hz
Coefficient of nonlinearity of a phase: 2.849279e-001
First order smothness: 4.596739e-001
Second order smothness: 8.325253e-001
------------------------------------------------------------
This track looks like CDDA with probability 100%
===========================================
    Track: 12. Milow - Love Like That Is Easy (Live)
Processing file: [12. Milow - Love Like That Is Easy (Live).aucdtect]
Detected average hi-boundary frequency: 2.107357e+004 Hz
Detected average lo-boundary frequency: 1.341072e+004 Hz
Detected average hi-cut frequency: 2.186296e+004 Hz
Detected average lo-cut frequency: 2.057879e+004 Hz
Maximum probablis boundary frequency: 2.156300e+004 Hz
Coefficient of nonlinearity of a phase: 1.246995e+000
First order smothness: 3.744334e-001
Second order smothness: 9.111514e-001
------------------------------------------------------------
This track looks like CDDA with probability 100%
===========================================
    Track: 13. Milow - Howling At The Moon (Live)
Processing file: [13. Milow - Howling At The Moon (Live).aucdtect]
Detected average hi-boundary frequency: 2.109165e+004 Hz
Detected average lo-boundary frequency: 1.411005e+004 Hz
Detected average hi-cut frequency: 2.190989e+004 Hz
Detected average lo-cut frequency: 2.088709e+004 Hz
Maximum probablis boundary frequency: 2.152500e+004 Hz
Coefficient of nonlinearity of a phase: 9.296412e-001
First order smothness: 3.709378e-001
Second order smothness: 9.294336e-001
------------------------------------------------------------
This track looks like CDDA with probability 100%
===========================================
    Track: 14. Milow - Running Blind (Live)
Processing file: [14. Milow - Running Blind (Live).aucdtect]
Detected average hi-boundary frequency: 2.076781e+004 Hz
Detected average lo-boundary frequency: 1.496935e+004 Hz
Detected average hi-cut frequency: 2.190072e+004 Hz
Detected average lo-cut frequency: 1.800730e+004 Hz
Maximum probablis boundary frequency: 2.189100e+004 Hz
Coefficient of nonlinearity of a phase: 1.473144e-001
First order smothness: 4.007763e-001
Second order smothness: 8.238719e-001
------------------------------------------------------------
This track looks like CDDA with probability 100%
===========================================
Код:
foobar2000 1.3.8 / Dynamic Range Meter 1.1.1
log date: 2016-05-12 21:37:06
--------------------------------------------------------------------------------
Analyzed: Milow / Modern Heart (Deluxe Edition)
--------------------------------------------------------------------------------
DR         Peak         RMS     Duration Track
--------------------------------------------------------------------------------
DR7        0.00 dB    -8.04 dB      4:17 01-Waiting Around For Love
DR4        0.00 dB    -7.59 dB      3:24 02-Lonely One
DR5        0.00 dB    -7.35 dB      3:06 03-Howling At The Moon
DR7        0.00 dB    -9.15 dB      3:41 04-The Fast Lane
DR7        0.00 dB    -8.92 dB      3:24 05-Love Like That Is Easy
DR5        0.00 dB    -8.17 dB      3:10 06-No No No
DR5        0.00 dB    -7.02 dB      4:15 07-Running Blind
DR7        0.00 dB    -9.32 dB      4:01 08-Really Rich
DR7        0.00 dB    -9.51 dB      6:02 09-Way Up High
DR7        0.00 dB    -8.71 dB      2:59 10-The Fast Lane (Live)
DR8       -0.20 dB   -11.18 dB      3:31 11-No No No (Live)
DR7       -1.36 dB   -10.01 dB      3:25 12-Love Like That Is Easy (Live)
DR7        0.00 dB    -9.77 dB      3:20 13-Howling At The Moon (Live)
DR8       -0.97 dB   -10.99 dB      3:11 14-Running Blind (Live)
--------------------------------------------------------------------------------
Number of tracks:  14
Official DR value: DR7
Samplerate:        44100 Hz
Channels:          2
Bits per sample:   16
Bitrate:           877 kbps
Codec:             FLAC
================================================================================
http://www.milow.com/
https://en.wikipedia.org/wiki/Milow
https://www.youtube.com/user/MilowVEVO
Правила, инструкции, FAQ!!!
Торрент  Добавлен [26 мар 2019, 19:36] Скачать торрент Магнет ссылка
Скачать торрент
[ Размер 2.91 КБ / Просмотров 1 ]

Статус
Проверен 
 
Размер  327.29 МБ
Приватный: Нет (DHT включён)
.torrent скачан  0
 


     Отправить личное сообщение
   
Страница 1 из 1
Показать сообщения за:  Поле сортировки  
Начать новую тему Ответить на тему


Сейчас этот форум просматривают: нет зарегистрированных пользователей и гости: 0


Вы не можете начинать темы
Вы не можете отвечать на сообщения
Вы не можете редактировать свои сообщения
Вы не можете удалять свои сообщения
Вы не можете добавлять вложения

Перейти:  
cron