Начать новую тему Ответить на тему
Статистика раздачи
Размер: 785.49 МБ | Добавлен: 26 мар 2019, 20:37 | Скачали: 0
Сидеров: 0  [0 байт/сек]    Личеров: 0  [0 байт/сек]
Пред. тема | След. тема 

Автор
Сообщение

СообщениеДобавлено: 26 мар 2019, 20:37 

Ответить с цитатой 


2006 - 2010
дискография
Жанр: Acoustic/Indie/Pop Rock
Год издания диска: 2006-2010
Страна: Sweden
Аудио кодек: FLAC (*.flac)
Тип рипа: tracks
Битрейт аудио: lossless
Продолжительность: 02:12:10
Источник (релизер): what.cd
Наличие сканов в содержимом раздачи: только фрОнты 500*500
Треклист:
#777Duration: 00:24:57
Tracklist:
01. Seek & Destroy (03:19)
02. Paranoid (04:25)
03. Breaking The Law (02:56)
04. Run To The Hills (04:25)
05. Jump (04:12)
06. Orgasmatron (05:40)
Код:
Код:
Exact Audio Copy V0.99 prebeta 3 from 28. July 2007
EAC extraction logfile from 18. May 2010, 16:14
Hellsongs / Lounge
Used drive  : TSSTcorpCDDVDW SH-S223B   Adapter: 3  ID: 0
Read mode               : Secure
Utilize accurate stream : Yes
Defeat audio cache      : Yes
Make use of C2 pointers : No
Read offset correction                      : 6
Overread into Lead-In and Lead-Out          : No
Fill up missing offset samples with silence : Yes
Delete leading and trailing silent blocks   : No
Null samples used in CRC calculations       : No
Used interface                              : Native Win32 interface for Win NT & 2000
Gap handling                                : Appended to previous track
Used output format              : User Defined Encoder
Selected bitrate                : 768 kBit/s
Quality                         : High
Add ID3 tag                     : No
Command line compressor         : C:\Program Files\Exact Audio Copy\FLAC\FLAC.EXE
Additional command line options : -6 -V -T "ARTIST=%a" -T "TITLE=%t" -T "ALBUM=%g" -T "DATE=%y" -T "TRACKNUMBER=%n" -T "GENRE=%m" -T "COMMENT=%e" %s -o %d
TOC of the extracted CD
     Track |   Start  |  Length  | Start sector | End sector
    ---------------------------------------------------------
        1  |  0:00.00 |  3:19.32 |         0    |    14956
        2  |  3:19.32 |  4:25.03 |     14957    |    34834
        3  |  7:44.35 |  2:55.52 |     34835    |    48011
        4  | 10:40.12 |  4:24.40 |     48012    |    67851
        5  | 15:04.52 |  4:11.60 |     67852    |    86736
        6  | 19:16.37 |  5:40.00 |     86737    |   112236
Track  1
     Filename C:\Users\BrotherFalk2\Music\Hellsongs\01 - Hellsongs - Seek & Destroy.wav
     Pre-gap length  0:00:02.00
     Peak level 98.7 %
     Track quality 100.0 %
     Test CRC 97689076
     Copy CRC 97689076
     Accurately ripped (confidence 2)  [F18BF6F7]
     Copy OK
Track  2
     Filename C:\Users\BrotherFalk2\Music\Hellsongs\02 - Hellsongs - Paranoid.wav
     Pre-gap length  0:00:02.25
     Peak level 98.7 %
     Track quality 100.0 %
     Test CRC BE40C0FC
     Copy CRC BE40C0FC
     Accurately ripped (confidence 2)  [D9B8F6C8]
     Copy OK
Track  3
     Filename C:\Users\BrotherFalk2\Music\Hellsongs\03 - Hellsongs - Breaking The Law.wav
     Pre-gap length  0:00:02.38
     Peak level 98.7 %
     Track quality 100.0 %
     Test CRC B73E0756
     Copy CRC B73E0756
     Accurately ripped (confidence 2)  [649B847F]
     Copy OK
Track  4
     Filename C:\Users\BrotherFalk2\Music\Hellsongs\04 - Hellsongs - Run To The Hills.wav
     Pre-gap length  0:00:02.20
     Peak level 98.7 %
     Track quality 100.0 %
     Test CRC F484A4CF
     Copy CRC F484A4CF
     Accurately ripped (confidence 2)  [4E84A034]
     Copy OK
Track  5
     Filename C:\Users\BrotherFalk2\Music\Hellsongs\05 - Hellsongs - Jump.wav
     Peak level 98.7 %
     Track quality 100.0 %
     Test CRC FB64ABA4
     Copy CRC FB64ABA4
     Accurately ripped (confidence 2)  [2C42C0CD]
     Copy OK
Track  6
     Filename C:\Users\BrotherFalk2\Music\Hellsongs\06 - Hellsongs - Orgasmatron.wav
     Pre-gap length  0:00:01.20
     Peak level 98.7 %
     Track quality 100.0 %
     Test CRC BECBAFFC
     Copy CRC BECBAFFC
     Accurately ripped (confidence 2)  [70716AD6]
     Copy OK
All tracks accurately ripped
No errors occurred
End of status report

Код:
Код:
REM GENRE Metal
REM DATE 2006
REM DISCID 3F05D806
REM COMMENT "ExactAudioCopy v0.99pb3"
PERFORMER "Hellsongs"
TITLE "Lounge"
FILE "01 - Hellsongs - Seek & Destroy.wav" WAVE
  TRACK 01 AUDIO
    TITLE "Seek & Destroy"
    PERFORMER "Hellsongs"
    ISRC SEXCT0600101
    INDEX 01 00:00:00
  TRACK 02 AUDIO
    TITLE "Paranoid"
    PERFORMER "Hellsongs"
    ISRC SEXCT0600102
    INDEX 00 03:17:07
FILE "02 - Hellsongs - Paranoid.wav" WAVE
    INDEX 01 00:00:00
  TRACK 03 AUDIO
    TITLE "Breaking The Law"
    PERFORMER "Hellsongs"
    ISRC SEXCT0600103
    INDEX 00 04:22:40
FILE "03 - Hellsongs - Breaking The Law.wav" WAVE
    INDEX 01 00:00:00
  TRACK 04 AUDIO
    TITLE "Run To The Hills"
    PERFORMER "Hellsongs"
    ISRC SEXCT0600104
    INDEX 00 02:53:32
FILE "04 - Hellsongs - Run To The Hills.wav" WAVE
    INDEX 01 00:00:00
FILE "05 - Hellsongs - Jump.wav" WAVE
  TRACK 05 AUDIO
    TITLE "Jump"
    PERFORMER "Hellsongs"
    ISRC SEXCT0600105
    INDEX 01 00:00:00
  TRACK 06 AUDIO
    TITLE "Orgasmatron"
    PERFORMER "Hellsongs"
    ISRC SEXCT0600106
    INDEX 00 04:10:40
FILE "06 - Hellsongs - Orgasmatron.wav" WAVE
    INDEX 01 00:00:00

Код:
Код:
AUDIOCHECKER v2.0 beta (build 457) - by Dester - opdester@freemail.hu
~~~~~~~~~~~~~~~~~~~~~~~~~~~~~~~~~~
-=== DO NOT EDIT THIS FILE! ===-
Path: ...\2006 - Lounge [EP]
1 -=- 01 - Hellsongs - Seek & Destroy.flac -=- CDDA (100%)
2 -=- 02 - Hellsongs - Paranoid.flac -=- CDDA (100%)
3 -=- 03 - Hellsongs - Breaking The Law.flac -=- CDDA (100%)
4 -=- 04 - Hellsongs - Run To The Hills.flac -=- CDDA (99%)
5 -=- 05 - Hellsongs - Jump.flac -=- CDDA (100%)
6 -=- 06 - Hellsongs - Orgasmatron.flac -=- CDDA (100%)
Summary 99,83% CDDA
75885460

#777Duration: 00:45:56
Tracklist:
01. The Trooper (04:47)
02. Symphony Of Destruction (03:13)
03. Rock The Night (04:33)
04. Seasons In The Abyss (04:27)
05. We're Not Gonna Take It (05:15)
06. Blackened (04:45)
07. Thunderstruck (05:10)
08. Run To The Hills (04:41)
09. Paranoid (04:29)
10. Princess Of The Night (04:36)
Код:
Код:
Exact Audio Copy V0.99 prebeta 5 from 4. May 2009
EAC extraction logfile from 10. November 2009, 19:59
Hellsongs / Hymns In the Key Of 666
Used drive  : Optiarc DVD RW AD-5170A   Adapter: 0  ID: 0
Read mode               : Secure
Utilize accurate stream : Yes
Defeat audio cache      : Yes
Make use of C2 pointers : No
Read offset correction                      : 48
Overread into Lead-In and Lead-Out          : No
Fill up missing offset samples with silence : Yes
Delete leading and trailing silent blocks   : No
Null samples used in CRC calculations       : Yes
Used interface                              : Native Win32 interface for Win NT & 2000
Gap handling                                : Appended to previous track
Used output format              : User Defined Encoder
Selected bitrate                : 128 kBit/s
Quality                         : High
Add ID3 tag                     : No
Command line compressor         : C:\Program Files (x86)\Exact Audio Copy\Flac\flac.exe
Additional command line options : -V -8 -T "artist=%a" -T "title=%t" -T "album=%g" -T "date=%y" -T "tracknumber=%n" -T "genre=%m" %s
TOC of the extracted CD
     Track |   Start  |  Length  | Start sector | End sector
    ---------------------------------------------------------
        1  |  0:00.00 |  4:47.24 |         0    |    21548
        2  |  4:47.24 |  3:13.03 |     21549    |    36026
        3  |  8:00.27 |  4:32.65 |     36027    |    56491
        4  | 12:33.17 |  4:27.25 |     56492    |    76541
        5  | 17:00.42 |  5:15.14 |     76542    |   100180
        6  | 22:15.56 |  4:45.16 |    100181    |   121571
        7  | 27:00.72 |  5:10.37 |    121572    |   144858
        8  | 32:11.34 |  4:41.04 |    144859    |   165937
        9  | 36:52.38 |  4:28.52 |    165938    |   186089
       10  | 41:21.15 |  4:36.28 |    186090    |   206817
Track  1
     Filename D:\Rips\Hellsongs - 2008 - Hymns In the Key Of 666\01 - The Trooper.wav
     Pre-gap length  0:00:02.00
     Peak level 98.8 %
     Track quality 100.0 %
     Test CRC 9E8E29E1
     Copy CRC 9E8E29E1
     Accurately ripped (confidence 2)  [45CD35D8]
     Copy OK
Track  2
     Filename D:\Rips\Hellsongs - 2008 - Hymns In the Key Of 666\02 - Symphony Of Destruction.wav
     Pre-gap length  0:00:01.32
     Peak level 98.8 %
     Track quality 100.0 %
     Test CRC E56531A3
     Copy CRC E56531A3
     Accurately ripped (confidence 2)  [0E949E39]
     Copy OK
Track  3
     Filename D:\Rips\Hellsongs - 2008 - Hymns In the Key Of 666\03 - Rock The Night.wav
     Pre-gap length  0:00:02.90
     Peak level 96.1 %
     Track quality 100.0 %
     Test CRC 5B735835
     Copy CRC 5B735835
     Accurately ripped (confidence 2)  [0F374210]
     Copy OK
Track  4
     Filename D:\Rips\Hellsongs - 2008 - Hymns In the Key Of 666\04 - Seasons In The Abyss.wav
     Pre-gap length  0:00:02.37
     Peak level 98.8 %
     Track quality 99.9 %
     Test CRC 729E281B
     Copy CRC 729E281B
     Accurately ripped (confidence 2)  [2EF2E058]
     Copy OK
Track  5
     Filename D:\Rips\Hellsongs - 2008 - Hymns In the Key Of 666\05 - We're Not Gonna Take It.wav
     Pre-gap length  0:00:01.36
     Peak level 97.8 %
     Track quality 100.0 %
     Test CRC 688447A7
     Copy CRC 688447A7
     Accurately ripped (confidence 2)  [52D11FCA]
     Copy OK
Track  6
     Filename D:\Rips\Hellsongs - 2008 - Hymns In the Key Of 666\06 - Blackened.wav
     Pre-gap length  0:00:01.46
     Peak level 98.8 %
     Track quality 100.0 %
     Test CRC 9CDB060A
     Copy CRC 9CDB060A
     Accurately ripped (confidence 2)  [1E73F07F]
     Copy OK
Track  7
     Filename D:\Rips\Hellsongs - 2008 - Hymns In the Key Of 666\07 - Thunderstruck.wav
     Pre-gap length  0:00:01.29
     Peak level 98.8 %
     Track quality 99.9 %
     Test CRC 3BDA8069
     Copy CRC 3BDA8069
     Accurately ripped (confidence 2)  [E56C9DB3]
     Copy OK
Track  8
     Filename D:\Rips\Hellsongs - 2008 - Hymns In the Key Of 666\08 - Run To The Hills.wav
     Pre-gap length  0:00:01.88
     Peak level 98.8 %
     Track quality 100.0 %
     Test CRC A6FBEC10
     Copy CRC A6FBEC10
     Accurately ripped (confidence 2)  [01885F14]
     Copy OK
Track  9
     Filename D:\Rips\Hellsongs - 2008 - Hymns In the Key Of 666\09 - Paranoid.wav
     Pre-gap length  0:00:01.24
     Peak level 98.8 %
     Track quality 100.0 %
     Test CRC 47642E35
     Copy CRC 47642E35
     Accurately ripped (confidence 2)  [6A033CE8]
     Copy OK
Track 10
     Filename D:\Rips\Hellsongs - 2008 - Hymns In the Key Of 666\10 - Princess Of The Night.wav
     Pre-gap length  0:00:03.65
     Peak level 98.8 %
     Track quality 99.9 %
     Test CRC D82107EE
     Copy CRC D82107EE
     Accurately ripped (confidence 2)  [E25B2F0B]
     Copy OK
All tracks accurately ripped
No errors occurred
End of status report

Код:
Код:
REM GENRE Folk
REM DATE 2008
REM DISCID 7C0AC50A
REM COMMENT "ExactAudioCopy v0.99pb5"
FILE "Hellsongs - 2008 - Hymns In the Key Of 666\01 - The Trooper.wav" WAVE
  TRACK 01 AUDIO
    INDEX 01 00:00:00
  TRACK 02 AUDIO
    INDEX 00 04:46:00
FILE "Hellsongs - 2008 - Hymns In the Key Of 666\02 - Symphony Of Destruction.wav" WAVE
    INDEX 01 00:00:00
  TRACK 03 AUDIO
    INDEX 00 03:10:10
FILE "Hellsongs - 2008 - Hymns In the Key Of 666\03 - Rock The Night.wav" WAVE
    INDEX 01 00:00:00
  TRACK 04 AUDIO
    INDEX 00 04:30:37
FILE "Hellsongs - 2008 - Hymns In the Key Of 666\04 - Seasons In The Abyss.wav" WAVE
    INDEX 01 00:00:00
  TRACK 05 AUDIO
    INDEX 00 04:25:73
FILE "Hellsongs - 2008 - Hymns In the Key Of 666\05 - We're Not Gonna Take It.wav" WAVE
    INDEX 01 00:00:00
  TRACK 06 AUDIO
    INDEX 00 05:13:54
FILE "Hellsongs - 2008 - Hymns In the Key Of 666\06 - Blackened.wav" WAVE
    INDEX 01 00:00:00
  TRACK 07 AUDIO
    INDEX 00 04:43:69
FILE "Hellsongs - 2008 - Hymns In the Key Of 666\07 - Thunderstruck.wav" WAVE
    INDEX 01 00:00:00
  TRACK 08 AUDIO
    INDEX 00 05:08:46
FILE "Hellsongs - 2008 - Hymns In the Key Of 666\08 - Run To The Hills.wav" WAVE
    INDEX 01 00:00:00
  TRACK 09 AUDIO
    INDEX 00 04:39:61
FILE "Hellsongs - 2008 - Hymns In the Key Of 666\09 - Paranoid.wav" WAVE
    INDEX 01 00:00:00
  TRACK 10 AUDIO
    INDEX 00 04:25:03
FILE "Hellsongs - 2008 - Hymns In the Key Of 666\10 - Princess Of The Night.wav" WAVE
    INDEX 01 00:00:00

Код:
Код:
AUDIOCHECKER v2.0 beta (build 457) - by Dester - opdester@freemail.hu
~~~~~~~~~~~~~~~~~~~~~~~~~~~~~~~~~~
-=== DO NOT EDIT THIS FILE! ===-
Path: ...\2008 - Hymns In the Key Of 666
01 -=- 01 - The Trooper.flac -=- CDDA (100%)
02 -=- 02 - Symphony Of Destruction.flac -=- CDDA (100%)
03 -=- 03 - Rock The Night.flac -=- CDDA (100%)
04 -=- 04 - Seasons In The Abyss.flac -=- CDDA (100%)
05 -=- 05 - We're Not Gonna Take It.flac -=- CDDA (100%)
06 -=- 06 - Blackened.flac -=- CDDA (100%)
07 -=- 07 - Thunderstruck.flac -=- CDDA (100%)
08 -=- 08 - Run To The Hills.flac -=- CDDA (100%)
09 -=- 09 - Paranoid.flac -=- CDDA (100%)
10 -=- 10 - Princess Of The Night.flac -=- CDDA (100%)
Summary 100,00% CDDA
90138996

#777Duration: 00:20:41
Tracklist:
01. Warpigs (03:37)
02. The Evil That Men Do (04:00)
03. Losers & Winners (04:24)
04. Eagle Fly Free (03:53)
05. I Just Want You (04:47)
Код:
Код:
Exact Audio Copy V0.99 prebeta 5 from 4. May 2009
EAC extraction logfile from 9. November 2009, 15:52
Hellsongs / Pieces Of Heaven, A Glimpse Of Hell
Used drive  : Optiarc DVD RW AD-5170A   Adapter: 0  ID: 0
Read mode               : Secure
Utilize accurate stream : Yes
Defeat audio cache      : Yes
Make use of C2 pointers : No
Read offset correction                      : 48
Overread into Lead-In and Lead-Out          : No
Fill up missing offset samples with silence : Yes
Delete leading and trailing silent blocks   : No
Null samples used in CRC calculations       : Yes
Used interface                              : Native Win32 interface for Win NT & 2000
Gap handling                                : Appended to previous track
Used output format              : User Defined Encoder
Selected bitrate                : 128 kBit/s
Quality                         : High
Add ID3 tag                     : No
Command line compressor         : C:\Program Files (x86)\Exact Audio Copy\Flac\flac.exe
Additional command line options : -V -8 -T "artist=%a" -T "title=%t" -T "album=%g" -T "date=%y" -T "tracknumber=%n" -T "genre=%m" %s
TOC of the extracted CD
     Track |   Start  |  Length  | Start sector | End sector
    ---------------------------------------------------------
        1  |  0:00.00 |  3:37.09 |         0    |    16283
        2  |  3:37.09 |  3:59.38 |     16284    |    34246
        3  |  7:36.47 |  4:23.41 |     34247    |    54012
        4  | 12:00.13 |  3:52.69 |     54013    |    71481
        5  | 15:53.07 |  4:47.16 |     71482    |    93022
Track  1
     Filename D:\Rips\Hellsongs - 2009 - Pieces Of Heaven, A Glimpse Of Hell [FLAC]\Hellsongs - 2009 - Pieces Of Heaven, A Glimpse Of Hell\01 - Warpigs.wav
     Pre-gap length  0:00:02.00
     Peak level 98.8 %
     Track quality 100.0 %
     Test CRC 5E912F0F
     Copy CRC 5E912F0F
     Track not present in AccurateRip database
     Copy OK
Track  2
     Filename D:\Rips\Hellsongs - 2009 - Pieces Of Heaven, A Glimpse Of Hell [FLAC]\Hellsongs - 2009 - Pieces Of Heaven, A Glimpse Of Hell\02 - The Evil That Men Do.wav
     Peak level 98.8 %
     Track quality 99.9 %
     Test CRC 460F5241
     Copy CRC 460F5241
     Track not present in AccurateRip database
     Copy OK
Track  3
     Filename D:\Rips\Hellsongs - 2009 - Pieces Of Heaven, A Glimpse Of Hell [FLAC]\Hellsongs - 2009 - Pieces Of Heaven, A Glimpse Of Hell\03 - Losers & Winners.wav
     Peak level 96.4 %
     Track quality 99.9 %
     Test CRC E4C203F4
     Copy CRC E4C203F4
     Track not present in AccurateRip database
     Copy OK
Track  4
     Filename D:\Rips\Hellsongs - 2009 - Pieces Of Heaven, A Glimpse Of Hell [FLAC]\Hellsongs - 2009 - Pieces Of Heaven, A Glimpse Of Hell\04 - Eagle Fly Free.wav
     Peak level 98.8 %
     Track quality 100.0 %
     Test CRC 1B761104
     Copy CRC 1B761104
     Track not present in AccurateRip database
     Copy OK
Track  5
     Filename D:\Rips\Hellsongs - 2009 - Pieces Of Heaven, A Glimpse Of Hell [FLAC]\Hellsongs - 2009 - Pieces Of Heaven, A Glimpse Of Hell\05 - I Just Want You.wav
     Peak level 98.8 %
     Track quality 99.9 %
     Test CRC 2294F47A
     Copy CRC 2294F47A
     Track not present in AccurateRip database
     Copy OK
None of the tracks are present in the AccurateRip database
No errors occurred
End of status report

Код:
Код:
REM DATE 2009
REM DISCID 3D04D805
REM COMMENT "ExactAudioCopy v0.99pb5"
FILE "Hellsongs - 2009 - Pieces Of Heaven, A Glimpse Of Hell\01 - Warpigs.wav" WAVE
  TRACK 01 AUDIO
    INDEX 01 00:00:00
FILE "Hellsongs - 2009 - Pieces Of Heaven, A Glimpse Of Hell\02 - The evil that men do.wav" WAVE
  TRACK 02 AUDIO
    INDEX 01 00:00:00
FILE "Hellsongs - 2009 - Pieces Of Heaven, A Glimpse Of Hell\03 - Loser & winners.wav" WAVE
  TRACK 03 AUDIO
    INDEX 01 00:00:00
FILE "Hellsongs - 2009 - Pieces Of Heaven, A Glimpse Of Hell\04 - Eagle fly free.wav" WAVE
  TRACK 04 AUDIO
    INDEX 01 00:00:00
FILE "Hellsongs - 2009 - Pieces Of Heaven, A Glimpse Of Hell\05 - I just want you.wav" WAVE
  TRACK 05 AUDIO
    INDEX 01 00:00:00

Код:
Код:
AUDIOCHECKER v2.0 beta (build 457) - by Dester - opdester@freemail.hu
~~~~~~~~~~~~~~~~~~~~~~~~~~~~~~~~~~
-=== DO NOT EDIT THIS FILE! ===-
Path: ...\2009 - Pieces Of Heaven, A Glimpse Of Hell [EP]
1 -=- 01 - Warpigs.flac -=- CDDA (100%)
2 -=- 02 - The Evil That Men Do.flac -=- CDDA (100%)
3 -=- 03 - Losers & Winners.flac -=- CDDA (100%)
4 -=- 04 - Eagle Fly Free.flac -=- CDDA (100%)
5 -=- 05 - I Just Want You.flac -=- CDDA (100%)
Summary 100,00% CDDA
232767252

#777Duration: 00:40:37
Tracklist:
01. Skeletons of Society (04:02)
02. Heaven Can Wait (05:00)
03. Welcome To The Jungle (03:12)
04. Walk (04:46)
05. I Wanna Be Somebody (04:15)
06. Rubicon Crossings (04:10)
07. School's Out (03:06)
08. Sin City (03:44)
09. Youth Gone Wild (03:37)
10. United (04:45)
Код:
Код:
Exact Audio Copy V0.99 prebeta 5 from 4. May 2009
EAC extraction logfile from 30. September 2010, 17:04
Hellsongs / Minor Misdemeanors
Used drive  : TSSTcorpCDDVDW SH-S223L   Adapter: 5  ID: 0
Read mode               : Secure
Utilize accurate stream : Yes
Defeat audio cache      : Yes
Make use of C2 pointers : No
Read offset correction                      : 6
Overread into Lead-In and Lead-Out          : No
Fill up missing offset samples with silence : Yes
Delete leading and trailing silent blocks   : No
Null samples used in CRC calculations       : Yes
Used interface                              : Native Win32 interface for Win NT & 2000
Gap handling                                : Appended to previous track
Used output format              : User Defined Encoder
Selected bitrate                : 768 kBit/s
Quality                         : High
Add ID3 tag                     : No
Command line compressor         : C:\Program Files\Exact Audio Copy\FLAC\FLAC.EXE
Additional command line options : -V -8 -T "artist=%a" -T "title=%t" -T "album=%g" -T "date=%y" -T "tracknumber=%n" -T "genre=%m" %s
TOC of the extracted CD
     Track |   Start  |  Length  | Start sector | End sector
    ---------------------------------------------------------
        1  |  0:00.00 |  4:01.58 |         0    |    18132
        2  |  4:01.58 |  4:59.70 |     18133    |    40627
        3  |  9:01.53 |  3:11.54 |     40628    |    55006
        4  | 12:13.32 |  4:46.25 |     55007    |    76481
        5  | 16:59.57 |  4:14.40 |     76482    |    95571
        6  | 21:14.22 |  4:09.43 |     95572    |   114289
        7  | 25:23.65 |  3:06.33 |    114290    |   128272
        8  | 28:30.23 |  3:43.53 |    128273    |   145050
        9  | 32:14.01 |  3:36.56 |    145051    |   161306
       10  | 35:50.57 |  4:44.57 |    161307    |   182663
Track  1
     Filename C:\Rip\EAC What\Hellsongs\01. Hellsongs - Minor Misdemeanors - Skeletons of Society.wav
     Pre-gap length  0:00:02.00
     Peak level 98.9 %
     Track quality 100.0 %
     Test CRC 0F8ECD6F
     Copy CRC 0F8ECD6F
     Track not present in AccurateRip database
     Copy OK
Track  2
     Filename C:\Rip\EAC What\Hellsongs\02. Hellsongs - Minor Misdemeanors - Heaven Can Wait.wav
     Peak level 98.9 %
     Track quality 100.0 %
     Test CRC E73B6B90
     Copy CRC E73B6B90
     Track not present in AccurateRip database
     Copy OK
Track  3
     Filename C:\Rip\EAC What\Hellsongs\03. Hellsongs - Minor Misdemeanors - Welcome To The Jungle.wav
     Peak level 98.9 %
     Track quality 100.0 %
     Test CRC 232B139C
     Copy CRC 232B139C
     Track not present in AccurateRip database
     Copy OK
Track  4
     Filename C:\Rip\EAC What\Hellsongs\04. Hellsongs - Minor Misdemeanors - Walk.wav
     Peak level 98.9 %
     Track quality 100.0 %
     Test CRC D41B7355
     Copy CRC D41B7355
     Track not present in AccurateRip database
     Copy OK
Track  5
     Filename C:\Rip\EAC What\Hellsongs\05. Hellsongs - Minor Misdemeanors - I Wanna Be Somebody.wav
     Peak level 98.9 %
     Track quality 100.0 %
     Test CRC 29C93966
     Copy CRC 29C93966
     Track not present in AccurateRip database
     Copy OK
Track  6
     Filename C:\Rip\EAC What\Hellsongs\06. Hellsongs - Minor Misdemeanors - Rubicon Crossings.wav
     Peak level 98.8 %
     Track quality 100.0 %
     Test CRC 604E1F60
     Copy CRC 604E1F60
     Track not present in AccurateRip database
     Copy OK
Track  7
     Filename C:\Rip\EAC What\Hellsongs\07. Hellsongs - Minor Misdemeanors - School's Out.wav
     Peak level 98.9 %
     Track quality 100.0 %
     Test CRC C720FA06
     Copy CRC C720FA06
     Track not present in AccurateRip database
     Copy OK
Track  8
     Filename C:\Rip\EAC What\Hellsongs\08. Hellsongs - Minor Misdemeanors - Sin City.wav
     Peak level 98.9 %
     Track quality 100.0 %
     Test CRC C3B43B18
     Copy CRC C3B43B18
     Track not present in AccurateRip database
     Copy OK
Track  9
     Filename C:\Rip\EAC What\Hellsongs\09. Hellsongs - Minor Misdemeanors - Youth Gone Wild.wav
     Peak level 98.9 %
     Track quality 100.0 %
     Test CRC 0F02F448
     Copy CRC 0F02F448
     Track not present in AccurateRip database
     Copy OK
Track 10
     Filename C:\Rip\EAC What\Hellsongs\10. Hellsongs - Minor Misdemeanors - United.wav
     Peak level 98.9 %
     Track quality 100.0 %
     Test CRC 8863D622
     Copy CRC 8863D622
     Track not present in AccurateRip database
     Copy OK
None of the tracks are present in the AccurateRip database
No errors occurred
End of status report

Код:
Код:
REM DATE 2010
REM DISCID 6F09830A
REM COMMENT "ExactAudioCopy v0.99pb5"
PERFORMER "Hellsongs"
TITLE "Minor Misdemeanors"
FILE "01. Hellsongs - Minor Misdemeanors - Skeletons of Society.wav" WAVE
  TRACK 01 AUDIO
    TITLE "Skeletons of Society"
    PERFORMER "Hellsongs"
    INDEX 01 00:00:00
FILE "02. Hellsongs - Minor Misdemeanors - Heaven Can Wait.wav" WAVE
  TRACK 02 AUDIO
    TITLE "Heaven Can Wait"
    PERFORMER "Hellsongs"
    INDEX 01 00:00:00
FILE "03. Hellsongs - Minor Misdemeanors - Welcome To The Jungle.wav" WAVE
  TRACK 03 AUDIO
    TITLE "Welcome To The Jungle"
    PERFORMER "Hellsongs"
    INDEX 01 00:00:00
FILE "04. Hellsongs - Minor Misdemeanors - Walk.wav" WAVE
  TRACK 04 AUDIO
    TITLE "Walk"
    PERFORMER "Hellsongs"
    INDEX 01 00:00:00
FILE "05. Hellsongs - Minor Misdemeanors - I Wanna Be Somebody.wav" WAVE
  TRACK 05 AUDIO
    TITLE "I Wanna Be Somebody"
    PERFORMER "Hellsongs"
    INDEX 01 00:00:00
FILE "06. Hellsongs - Minor Misdemeanors - Rubicon Crossings.wav" WAVE
  TRACK 06 AUDIO
    TITLE "Rubicon Crossings"
    PERFORMER "Hellsongs"
    INDEX 01 00:00:00
FILE "07. Hellsongs - Minor Misdemeanors - School's Out.wav" WAVE
  TRACK 07 AUDIO
    TITLE "School's Out"
    PERFORMER "Hellsongs"
    INDEX 01 00:00:00
FILE "08. Hellsongs - Minor Misdemeanors - Sin City.wav" WAVE
  TRACK 08 AUDIO
    TITLE "Sin City"
    PERFORMER "Hellsongs"
    INDEX 01 00:00:00
FILE "09. Hellsongs - Minor Misdemeanors - Youth Gone Wild.wav" WAVE
  TRACK 09 AUDIO
    TITLE "Youth Gone Wild"
    PERFORMER "Hellsongs"
    INDEX 01 00:00:00
FILE "10. Hellsongs - Minor Misdemeanors - United.wav" WAVE
  TRACK 10 AUDIO
    TITLE "United"
    PERFORMER "Hellsongs"
    INDEX 01 00:00:00

Код:
Код:
AUDIOCHECKER v2.0 beta (build 457) - by Dester - opdester@freemail.hu
~~~~~~~~~~~~~~~~~~~~~~~~~~~~~~~~~~
-=== DO NOT EDIT THIS FILE! ===-
Path: ...\2010 - Minor Misdemeanors
01 -=- 01 - Hellsongs - Skeletons of Society.flac -=- CDDA (100%)
02 -=- 02 - Hellsongs - Heaven Can Wait.flac -=- CDDA (100%)
03 -=- 03 - Hellsongs - Welcome To The Jungle.flac -=- CDDA (100%)
04 -=- 04 - Hellsongs - Walk.flac -=- CDDA (100%)
05 -=- 05 - Hellsongs - I Wanna Be Somebody.flac -=- CDDA (100%)
06 -=- 06 - Hellsongs - Rubicon Crossings.flac -=- CDDA (100%)
07 -=- 07 - Hellsongs - School's Out.flac -=- CDDA (100%)
08 -=- 08 - Hellsongs - Sin City.flac -=- CDDA (99%)
09 -=- 09 - Hellsongs - Youth Gone Wild.flac -=- CDDA (99%)
10 -=- 10 - Hellsongs - United.flac -=- CDDA (62%)
Summary 96,00% CDDA
126894036

... старый металист плакал, смешно потряхивая изрядно поредевшим хаером, и нервно теребил в руках проржавевший браслет из строгого собачьего ошейника, который глухо брякал в такт знакомым до боли в гениталиях мелодиям...
Правила, инструкции, FAQ!!!
Торрент  Добавлен [26 мар 2019, 20:37] Скачать торрент Магнет ссылка
Скачать торрент
[ Размер 19.77 КБ / Просмотров 5 ]

Статус
Проверен 
 
Размер  785.49 МБ
Приватный: Нет (DHT включён)
.torrent скачан  0
 


     Отправить личное сообщение
   
Страница 1 из 1
Показать сообщения за:  Поле сортировки  
Начать новую тему Ответить на тему


Сейчас этот форум просматривают: нет зарегистрированных пользователей и гости: 0


Вы не можете начинать темы
Вы не можете отвечать на сообщения
Вы не можете редактировать свои сообщения
Вы не можете удалять свои сообщения
Вы не можете добавлять вложения

Перейти:  
cron