Начать новую тему Ответить на тему
Статистика раздачи
Размер: 303.12 МБ | Добавлен: 01 янв 2020, 22:55 | Скачали: 0
Сидеров: 0  [0 байт/сек]    Личеров: 0  [0 байт/сек]
Пред. тема | След. тема 

Автор
Сообщение

СообщениеДобавлено: 01 янв 2020, 22:55 

Ответить с цитатой 

Les Elles / Les Elles
Жанр: Acoustic, Chanson, Vocal
Носитель: CD
Страна-производитель диска (релиза): France
Год издания: 1997
Издатель (лейбл): Boucherie Productions
Номер по каталогу: BP3212
Аудиокодек: FLAC (*.flac)
Тип рипа: tracks+.cue
Битрейт аудио: lossless
Продолжительность: 00:47:01
Источник (релизер): what.cd
Наличие сканов в содержимом раздачи: да
Треклист:
1 La Chatte De Monsieur Clock 4:24
2 Jeune Homme 4:23
3 Miss Alzheimer 3:29
4 Les Talons Hauts 0:29
5 Le Vase Chinois 4:12
6 Alors 3:29
7 Le Bal 2:20
8 Milo 2:29
9 Janine 2:38
10 Les Ciseaux Pointus 2:09
11 Les Pauvres 2:42
12 Les Avions 0:26
13 Mauvais Sang 2:44
14 La Fée Atomique 5:58
15 Moi J'aime Bien 4:55
Код:
Exact Audio Copy V1.1 from 23. June 2015
EAC extraction logfile from 27. February 2016, 13:01
Les Elles / Les Elles
Used drive  : TSSTcorpCDDVDW SH-S202N   Adapter: 1  ID: 0
Read mode               : Secure
Utilize accurate stream : Yes
Defeat audio cache      : Yes
Make use of C2 pointers : No
Read offset correction                      : 6
Overread into Lead-In and Lead-Out          : No
Fill up missing offset samples with silence : Yes
Delete leading and trailing silent blocks   : No
Null samples used in CRC calculations       : Yes
Used interface                              : Native Win32 interface for Win NT & 2000
Gap handling                                : Appended to previous track
Used output format : Internal WAV Routines
Sample format      : 44.100 Hz; 16 Bit; Stereo
TOC of the extracted CD
     Track |   Start  |  Length  | Start sector | End sector
    ---------------------------------------------------------
        1  |  0:00.00 |  4:24.47 |         0    |    19846
        2  |  4:24.47 |  4:26.00 |     19847    |    39796
        3  |  8:50.47 |  3:30.03 |     39797    |    55549
        4  | 12:20.50 |  0:29.32 |     55550    |    57756
        5  | 12:50.07 |  4:13.63 |     57757    |    76794
        6  | 17:03.70 |  3:29.37 |     76795    |    92506
        7  | 20:33.32 |  2:20.00 |     92507    |   103006
        8  | 22:53.32 |  2:30.73 |    103007    |   114329
        9  | 25:24.30 |  2:38.40 |    114330    |   126219
       10  | 28:02.70 |  2:09.12 |    126220    |   135906
       11  | 30:12.07 |  2:43.50 |    135907    |   148181
       12  | 32:55.57 |  0:26.35 |    148182    |   150166
       13  | 33:22.17 |  2:44.73 |    150167    |   162539
       14  | 36:07.15 |  5:58.55 |    162540    |   189444
       15  | 42:05.70 |  4:55.35 |    189445    |   211604
Track  1
     Filename C:\What.cd\les elles - les elles (1997) [WAV,LOG]\01 La Chatte de Monsieur Clock.wav
     Pre-gap length  0:00:02.00
     Peak level 98.0 %
     Extraction speed 1.6 X
     Track quality 99.9 %
     Test CRC 0EC025D4
     Copy CRC 0EC025D4
     Accurately ripped (confidence 3)  [93FB476B]  (AR v2)
     Copy OK
Track  2
     Filename C:\What.cd\les elles - les elles (1997) [WAV,LOG]\02 Jeune Homme.wav
     Peak level 98.0 %
     Extraction speed 2.0 X
     Track quality 100.0 %
     Test CRC C5B23194
     Copy CRC C5B23194
     Accurately ripped (confidence 3)  [5D46F863]  (AR v2)
     Copy OK
Track  3
     Filename C:\What.cd\les elles - les elles (1997) [WAV,LOG]\03 Miss Alzheimer.wav
     Pre-gap length  0:00:02.20
     Peak level 98.0 %
     Extraction speed 2.1 X
     Track quality 100.0 %
     Test CRC B5646B4F
     Copy CRC B5646B4F
     Accurately ripped (confidence 3)  [E85C9B57]  (AR v2)
     Copy OK
Track  4
     Filename C:\What.cd\les elles - les elles (1997) [WAV,LOG]\04 Les Talons Hauts.wav
     Pre-gap length  0:00:00.20
     Peak level 29.9 %
     Extraction speed 1.1 X
     Track quality 100.0 %
     Test CRC 5FF4760D
     Copy CRC 5FF4760D
     Accurately ripped (confidence 3)  [F6BD107D]  (AR v2)
     Copy OK
Track  5
     Filename C:\What.cd\les elles - les elles (1997) [WAV,LOG]\05 Le Vase Chinois.wav
     Peak level 98.0 %
     Extraction speed 2.3 X
     Track quality 100.0 %
     Test CRC 383AA456
     Copy CRC 383AA456
     Accurately ripped (confidence 3)  [477C2EE1]  (AR v2)
     Copy OK
Track  6
     Filename C:\What.cd\les elles - les elles (1997) [WAV,LOG]\06 Alors.wav
     Pre-gap length  0:00:01.10
     Peak level 98.0 %
     Extraction speed 1.9 X
     Track quality 99.9 %
     Test CRC 51DEC444
     Copy CRC 51DEC444
     Accurately ripped (confidence 3)  [920538FC]  (AR v2)
     Copy OK
Track  7
     Filename C:\What.cd\les elles - les elles (1997) [WAV,LOG]\07 Le Bal.wav
     Peak level 98.1 %
     Extraction speed 2.3 X
     Track quality 100.0 %
     Test CRC 23019171
     Copy CRC 23019171
     Accurately ripped (confidence 3)  [FD0A7BFE]  (AR v2)
     Copy OK
Track  8
     Filename C:\What.cd\les elles - les elles (1997) [WAV,LOG]\08 Milo.wav
     Peak level 98.9 %
     Extraction speed 2.4 X
     Track quality 100.0 %
     Test CRC C5BA679B
     Copy CRC C5BA679B
     Accurately ripped (confidence 3)  [899D5644]  (AR v2)
     Copy OK
Track  9
     Filename C:\What.cd\les elles - les elles (1997) [WAV,LOG]\09 Janine.wav
     Pre-gap length  0:00:01.00
     Peak level 98.0 %
     Extraction speed 2.5 X
     Track quality 100.0 %
     Test CRC 4923D466
     Copy CRC 4923D466
     Accurately ripped (confidence 3)  [AC528666]  (AR v2)
     Copy OK
Track 10
     Filename C:\What.cd\les elles - les elles (1997) [WAV,LOG]\10 Les Ciseaux Pointus.wav
     Pre-gap length  0:00:00.08
     Peak level 55.1 %
     Extraction speed 1.8 X
     Track quality 99.9 %
     Test CRC 1AB346FE
     Copy CRC 1AB346FE
     Accurately ripped (confidence 3)  [B36BF20E]  (AR v2)
     Copy OK
Track 11
     Filename C:\What.cd\les elles - les elles (1997) [WAV,LOG]\11 Les Pauvres.wav
     Peak level 100.0 %
     Extraction speed 2.0 X
     Track quality 99.9 %
     Test CRC E0FEA939
     Copy CRC E0FEA939
     Accurately ripped (confidence 3)  [21E98163]  (AR v2)
     Copy OK
Track 12
     Filename C:\What.cd\les elles - les elles (1997) [WAV,LOG]\12 Les Avions.wav
     Pre-gap length  0:00:01.00
     Peak level 29.9 %
     Extraction speed 1.3 X
     Track quality 100.0 %
     Test CRC 6BB811D1
     Copy CRC 6BB811D1
     Accurately ripped (confidence 3)  [C6AF9706]  (AR v2)
     Copy OK
Track 13
     Filename C:\What.cd\les elles - les elles (1997) [WAV,LOG]\13 Mauvais Sang.wav
     Pre-gap length  0:00:00.20
     Peak level 98.0 %
     Extraction speed 2.0 X
     Track quality 99.9 %
     Test CRC 2D5286C1
     Copy CRC 2D5286C1
     Accurately ripped (confidence 3)  [9B33A2CD]  (AR v2)
     Copy OK
Track 14
     Filename C:\What.cd\les elles - les elles (1997) [WAV,LOG]\14 La Fée Atomique.wav
     Pre-gap length  0:00:00.25
     Peak level 98.0 %
     Extraction speed 3.2 X
     Track quality 100.0 %
     Test CRC 8BC28018
     Copy CRC 8BC28018
     Accurately ripped (confidence 3)  [37857413]  (AR v2)
     Copy OK
Track 15
     Filename C:\What.cd\les elles - les elles (1997) [WAV,LOG]\15 Moi J'Aime Bien.wav
     Pre-gap length  0:00:00.53
     Peak level 89.8 %
     Extraction speed 2.6 X
     Track quality 99.9 %
     Test CRC 929B69A1
     Copy CRC 929B69A1
     Accurately ripped (confidence 3)  [73A6025B]  (AR v2)
     Copy OK
All tracks accurately ripped
No errors occurred
End of status report
---- CUETools DB Plugin V2.1.6
[CTDB TOCID: b.oXdLsMSaD7kRZ3l.qSHTXbRJ8-] found
Submit result: already submitted
Track | CTDB Status
  1   | (6/7) Accurately ripped
  2   | (6/7) Accurately ripped
  3   | (6/7) Accurately ripped
  4   | (6/7) Accurately ripped
  5   | (6/7) Accurately ripped
  6   | (6/7) Accurately ripped
  7   | (6/7) Accurately ripped
  8   | (6/7) Accurately ripped
  9   | (6/7) Accurately ripped
 10   | (6/7) Accurately ripped
 11   | (6/7) Accurately ripped
 12   | (7/7) Accurately ripped
 13   | (6/7) Accurately ripped
 14   | (6/7) Accurately ripped
 15   | (5/7) Accurately ripped, or (1/7) differs in 2 samples @01:33:27
==== Log checksum 9B79FAF34128627B213AEB999D644F296B98F89934DBF99D2DEFFB455C8A88DD ====
Код:
REM GENRE misc
REM DATE 1997
REM DISCID C90B050F
REM COMMENT "ExactAudioCopy v1.1"
PERFORMER "Les Elles"
TITLE "Les Elles"
FILE "01 La Chatte de Monsieur Clock.wav" WAVE
  TRACK 01 AUDIO
    TITLE "La Chatte de Monsieur Clock"
    PERFORMER "Les Elles"
    INDEX 01 00:00:00
FILE "02 Jeune Homme.wav" WAVE
  TRACK 02 AUDIO
    TITLE "Jeune Homme"
    PERFORMER "Les Elles"
    INDEX 01 00:00:00
  TRACK 03 AUDIO
    TITLE "Miss Alzheimer"
    PERFORMER "Les Elles"
    INDEX 00 04:23:55
FILE "03 Miss Alzheimer.wav" WAVE
    INDEX 01 00:00:00
  TRACK 04 AUDIO
    TITLE "Les Talons Hauts"
    PERFORMER "Les Elles"
    INDEX 00 03:29:58
FILE "04 Les Talons Hauts.wav" WAVE
    INDEX 01 00:00:00
FILE "05 Le Vase Chinois.wav" WAVE
  TRACK 05 AUDIO
    TITLE "Le Vase Chinois"
    PERFORMER "Les Elles"
    INDEX 01 00:00:00
  TRACK 06 AUDIO
    TITLE "Alors"
    PERFORMER "Les Elles"
    INDEX 00 04:12:53
FILE "06 Alors.wav" WAVE
    INDEX 01 00:00:00
FILE "07 Le Bal.wav" WAVE
  TRACK 07 AUDIO
    TITLE "Le Bal"
    PERFORMER "Les Elles"
    INDEX 01 00:00:00
FILE "08 Milo.wav" WAVE
  TRACK 08 AUDIO
    TITLE "Milo"
    PERFORMER "Les Elles"
    INDEX 01 00:00:00
  TRACK 09 AUDIO
    TITLE "Janine"
    PERFORMER "Les Elles"
    INDEX 00 02:29:73
FILE "09 Janine.wav" WAVE
    INDEX 01 00:00:00
  TRACK 10 AUDIO
    TITLE "Les Ciseaux Pointus"
    PERFORMER "Les Elles"
    INDEX 00 02:38:32
FILE "10 Les Ciseaux Pointus.wav" WAVE
    INDEX 01 00:00:00
FILE "11 Les Pauvres.wav" WAVE
  TRACK 11 AUDIO
    TITLE "Les Pauvres"
    PERFORMER "Les Elles"
    INDEX 01 00:00:00
  TRACK 12 AUDIO
    TITLE "Les Avions"
    PERFORMER "Les Elles"
    INDEX 00 02:42:50
FILE "12 Les Avions.wav" WAVE
    INDEX 01 00:00:00
  TRACK 13 AUDIO
    TITLE "Mauvais Sang"
    PERFORMER "Les Elles"
    INDEX 00 00:26:15
FILE "13 Mauvais Sang.wav" WAVE
    INDEX 01 00:00:00
  TRACK 14 AUDIO
    TITLE "La Fйe Atomique"
    PERFORMER "Les Elles"
    INDEX 00 02:44:48
FILE "14 La Fйe Atomique.wav" WAVE
    INDEX 01 00:00:00
  TRACK 15 AUDIO
    TITLE "Moi J'Aime Bien"
    PERFORMER "Les Elles"
    INDEX 00 05:58:02
FILE "15 Moi J'Aime Bien.wav" WAVE
    INDEX 01 00:00:00
Код:
AUDIOCHECKER v2.0 beta (build 457) - by Dester - opdester@freemail.hu
~~~~~~~~~~~~~~~~~~~~~~~~~~~~~~~~~~
-=== DO NOT EDIT THIS FILE! ===-
Path: ...\Les Elles - Les Elles (1997) [FLAC,CUE,LOG]
01 -=- 01 La Chatte de Monsieur Clock.flac -=- CDDA (99%)
02 -=- 02 Jeune Homme.flac -=- CDDA (100%)
03 -=- 03 Miss Alzheimer.flac -=- CDDA (100%)
04 -=- 04 Les Talons Hauts.flac -=- CDDA (100%)
05 -=- 05 Le Vase Chinois.flac -=- CDDA (100%)
06 -=- 06 Alors.flac -=- CDDA (100%)
07 -=- 07 Le Bal.flac -=- CDDA (100%)
08 -=- 08 Milo.flac -=- CDDA (100%)
09 -=- 09 Janine.flac -=- CDDA (99%)
10 -=- 10 Les Ciseaux Pointus.flac -=- CDDA (99%)
11 -=- 11 Les Pauvres.flac -=- CDDA (100%)
12 -=- 12 Les Avions.flac -=- CDDA (100%)
13 -=- 13 Mauvais Sang.flac -=- CDDA (100%)
14 -=- 14 La Fee Atomique.flac -=- CDDA (100%)
15 -=- 15 Moi J'Aime Bien.flac -=- CDDA (100%)
Summary 99,80% CDDA
20738580
Правила, инструкции, FAQ!!!
Торрент  Добавлен [01 янв 2020, 22:55] Скачать торрент Магнет ссылка
Скачать торрент
[ Размер 4.5 КБ / Просмотров 6 ]

Статус
Проверен 
 
Размер  303.12 МБ
Приватный: Нет (DHT включён)
.torrent скачан  0
 


     Отправить личное сообщение
   
Страница 1 из 1
Показать сообщения за:  Поле сортировки  
Начать новую тему Ответить на тему


Сейчас этот форум просматривают: нет зарегистрированных пользователей и гости: 0


Вы не можете начинать темы
Вы не можете отвечать на сообщения
Вы не можете редактировать свои сообщения
Вы не можете удалять свои сообщения
Вы не можете добавлять вложения

Перейти:  
cron