Начать новую тему Ответить на тему
Статистика раздачи
Размер: 248.51 МБ | Добавлен: 05 май 2020, 10:43 | Скачали: 0
Сидеров: 0  [0 байт/сек]    Личеров: 0  [0 байт/сек]
Пред. тема | След. тема 

Автор
Сообщение

СообщениеДобавлено: 05 май 2020, 10:43 

Ответить с цитатой 

Joan Armatrading / Joan Armatrading
Жанр: Acoustic, Ballad, Classic Rock
Носитель: CD
Страна-производитель диска (релиза): Australia
Год издания: 1976
Издатель (лейбл): A&M Records ‎
Номер по каталогу: 393 228-2
Аудиокодек: FLAC (*.flac)
Тип рипа: tracks+.cue
Продолжительность: 00:41:50
Источник: israbox
Наличие сканов в содержимом раздачи: да
Треклист:
1 Down To Zero
2 Help Yourself
3 Water With The Wine
4 Love And Affection
5 Save Me
6 Join The Boys
7 People
8 Somebody Who Loves You
9 Like Fire
10 Tall In The Saddle
Код:
EAC extraction logfile from 19. December 2007, 14:27 for CD
Joan Armatrading / Joan Armatrading
Used drive  : PIONEER DVD-RW  DVR-212   Adapter: 1  ID: 0
Read mode   : Secure with NO C2, accurate stream, disable cache
Read offset correction : 48
Overread into Lead-In and Lead-Out : No
Used output format : C:\Program Files\FLAC\flac.exe   (User Defined Encoder)
                     128 kBit/s
                     Additional command line options : -V -8 -T "artist=%a" -T "title=%t" -T "album=%g" -T "date=%y" -T "tracknumber=%n" -T "genre=%m" %s
Other options      :
    Fill up missing offset samples with silence : Yes
    Delete leading and trailing silent blocks : No
    Native Win32 interface for Win NT & 2000
Track  1
     Filename D:\My Music\EAC Rip\01 - Down To Zero.wav
     Pre-gap length  0:00:02.42
     Peak level 77.7 %
     Track quality 100.0 %
     Test CRC 803E2DA1
     Copy CRC 803E2DA1
     Copy OK
Track  2
     Filename D:\My Music\EAC Rip\02 - Help Yourself.wav
     Peak level 81.2 %
     Track quality 100.0 %
     Test CRC 0EBCF247
     Copy CRC 0EBCF247
     Copy OK
Track  3
     Filename D:\My Music\EAC Rip\03 - Water With The Wine.wav
     Pre-gap length  0:00:01.80
     Peak level 67.4 %
     Track quality 100.0 %
     Test CRC 97A86544
     Copy CRC 97A86544
     Copy OK
Track  4
     Filename D:\My Music\EAC Rip\04 - Love And Affection.wav
     Pre-gap length  0:00:02.20
     Peak level 76.7 %
     Track quality 100.0 %
     Test CRC 0E48F715
     Copy CRC 0E48F715
     Copy OK
Track  5
     Filename D:\My Music\EAC Rip\05 - Save Me.wav
     Pre-gap length  0:00:02.18
     Peak level 61.8 %
     Track quality 100.0 %
     Test CRC 901A0848
     Copy CRC 901A0848
     Copy OK
Track  6
     Filename D:\My Music\EAC Rip\06 - Join The Boys.wav
     Peak level 76.4 %
     Track quality 99.9 %
     Test CRC 46ACF0EC
     Copy CRC 46ACF0EC
     Copy OK
Track  7
     Filename D:\My Music\EAC Rip\07 - People.wav
     Pre-gap length  0:00:02.73
     Peak level 73.2 %
     Track quality 100.0 %
     Test CRC 051CAF95
     Copy CRC 051CAF95
     Copy OK
Track  8
     Filename D:\My Music\EAC Rip\08 - Somebody Who Loves You.wav
     Pre-gap length  0:00:01.70
     Peak level 58.0 %
     Track quality 100.0 %
     Test CRC 839D1DAE
     Copy CRC 839D1DAE
     Copy OK
Track  9
     Filename D:\My Music\EAC Rip\09 - Like Fire.wav
     Pre-gap length  0:00:03.60
     Peak level 74.9 %
     Track quality 99.9 %
     Test CRC D27E28DB
     Copy CRC D27E28DB
     Copy OK
Track 10
     Filename D:\My Music\EAC Rip\10 - Tall In The Saddle.wav
     Peak level 76.5 %
     Track quality 100.0 %
     Test CRC 043B4DB0
     Copy CRC 043B4DB0
     Copy OK
No errors occured
End of status report
Код:
REM GENRE Folk
REM DATE 1976
REM DISCID 7709D30A
REM COMMENT "ExactAudioCopy v0.95b3"
PERFORMER "Joan Armatrading"
TITLE "Joan Armatrading"
FILE "01 - Down To Zero.wav" WAVE
  TRACK 01 AUDIO
    TITLE "Down To Zero"
    PERFORMER "Joan Armatrading"
    PREGAP 00:00:32
    INDEX 01 00:00:00
FILE "02 - Help Yourself.wav" WAVE
  TRACK 02 AUDIO
    TITLE "Help Yourself"
    PERFORMER "Joan Armatrading"
    INDEX 01 00:00:00
  TRACK 03 AUDIO
    TITLE "Water With The Wine"
    PERFORMER "Joan Armatrading"
    INDEX 00 04:04:30
FILE "03 - Water With The Wine.wav" WAVE
    INDEX 01 00:00:00
  TRACK 04 AUDIO
    TITLE "Love And Affection"
    PERFORMER "Joan Armatrading"
    INDEX 00 02:49:05
FILE "04 - Love And Affection.wav" WAVE
    INDEX 01 00:00:00
  TRACK 05 AUDIO
    TITLE "Save Me"
    PERFORMER "Joan Armatrading"
    INDEX 00 04:29:66
FILE "05 - Save Me.wav" WAVE
    INDEX 01 00:00:00
FILE "06 - Join The Boys.wav" WAVE
  TRACK 06 AUDIO
    TITLE "Join The Boys"
    PERFORMER "Joan Armatrading"
    INDEX 01 00:00:00
  TRACK 07 AUDIO
    TITLE "People"
    PERFORMER "Joan Armatrading"
    INDEX 00 04:49:10
FILE "07 - People.wav" WAVE
    INDEX 01 00:00:00
  TRACK 08 AUDIO
    TITLE "Somebody Who Loves You"
    PERFORMER "Joan Armatrading"
    INDEX 00 03:31:00
FILE "08 - Somebody Who Loves You.wav" WAVE
    INDEX 01 00:00:00
  TRACK 09 AUDIO
    TITLE "Like Fire"
    PERFORMER "Joan Armatrading"
    INDEX 00 03:35:02
FILE "09 - Like Fire.wav" WAVE
    INDEX 01 00:00:00
FILE "10 - Tall In The Saddle.wav" WAVE
  TRACK 10 AUDIO
    TITLE "Tall In The Saddle"
    PERFORMER "Joan Armatrading"
    INDEX 01 00:00:00
Правила, инструкции, FAQ!!!
Торрент  Добавлен [05 май 2020, 10:43] Скачать торрент Магнет ссылка
Скачать торрент
[ Размер 20.78 КБ / Просмотров 4 ]

Статус
Проверен 
 
Размер  248.51 МБ
Приватный: Нет (DHT включён)
.torrent скачан  0
 


     Отправить личное сообщение
   
Страница 1 из 1
Показать сообщения за:  Поле сортировки  
Начать новую тему Ответить на тему


Сейчас этот форум просматривают: нет зарегистрированных пользователей и гости: 0


Вы не можете начинать темы
Вы не можете отвечать на сообщения
Вы не можете редактировать свои сообщения
Вы не можете удалять свои сообщения
Вы не можете добавлять вложения

Перейти:  
cron