Начать новую тему Ответить на тему
Статистика раздачи
Размер: 443.81 МБ | Добавлен: 26 июн 2020, 17:50 | Скачали: 0
Сидеров: 0  [0 байт/сек]    Личеров: 0  [0 байт/сек]
Пред. тема | След. тема 

Автор
Сообщение

СообщениеДобавлено: 26 июн 2020, 17:50 

Ответить с цитатой 

Scar Tissue - Rebuild
Жанр: Abstract, Industrial, Electro
Год выпуска диска: 1998
Производитель диска: US
Аудио кодек: FLAC
Тип рипа: tracks+.cue
Битрейт аудио: lossless
Продолжительность: 1:12:47
Трэклист:
1 Double Blind (Subjective Mix) (5:58)
2 Subterrain (Cleener Version) (6:55)
Remix - Cleen
3 Remembrane (Nerve Filter Mix) (6:20)
Remix - Nerve Filter
4 Cascade (Subconscious Mix) (4:53)
Remix - cEvin Key
5 Soiled (Necromix) (5:24)
Remix - Necrofix
6 Subterranean Screens (Railgun Mix) (4:57)
Remix - Railgun
7 Not Your Own (Tensor Terminated Mix) (5:08)
Remix - Tensor
8 Scsix (New Mind Mix) (4:57)
Remix - New Mind
9 Intro (Live At The Fenix In Seattle) (0:30)
10 Choking On Fate (Live) (4:20)
11 Afekt (2:52)
12 Mammoth (3:51)
13 Lattice (6:20)
14 Concealed Toy (3:51)
Sampler - Jonathan Sharp
15 Crashtime (SMP Mix) (3:47)
Lyrics By, Vocals - Jason Bazinet
Remix - SMP
16 Identified By Dental Records (Perception Mix) (3:55)
Remix - 3D House Of Beef
Доп. информация:
Label: 21st Circuitry
Catalog#: 21C.CD35
Credits: Producer, Programmed By, Percussion - Steve Watkins; Programmed By, Guitar, Percussion [Toys] - Phillip Caldwell; Turntables - Tao
Код:
Exact Audio Copy V0.99 prebeta 5 from 4. May 2009
EAC extraction logfile from 18. May 2009, 3:06
Scar Tissue / Rebuild
Used drive  : TEAC    CD-W540E   Adapter: 3  ID: 0
Read mode               : Secure
Utilize accurate stream : Yes
Defeat audio cache      : Yes
Make use of C2 pointers : No
Read offset correction                      : 686
Overread into Lead-In and Lead-Out          : No
Fill up missing offset samples with silence : Yes
Delete leading and trailing silent blocks   : No
Null samples used in CRC calculations       : Yes
Used interface                              : Installed external ASPI interface
Gap handling                                : Appended to previous track
Used output format              : User Defined Encoder
Selected bitrate                : 1024 kBit/s
Quality                         : High
Add ID3 tag                     : No
Command line compressor         : D:\Programs\Tools\_Exact Audio Copy\FLAC\FLAC.EXE
Additional command line options : -8 -V -T "ARTIST=%a" -T "TITLE=%t" -T "ALBUM=%g" -T "DATE=%y" -T "TRACKNUMBER=%n" -T "GENRE=%m" -T "COMMENT=%e" %s -o %d
TOC of the extracted CD
     Track |   Start  |  Length  | Start sector | End sector
    ---------------------------------------------------------
        1  |  0:00.00 |  5:59.45 |         0    |    26969
        2  |  5:59.45 |  6:53.10 |     26970    |    57954
        3  | 12:52.55 |  6:20.72 |     57955    |    86526
        4  | 19:13.52 |  4:49.68 |     86527    |   108269
        5  | 24:03.45 |  5:23.30 |    108270    |   132524
        6  | 29:27.00 |  4:26.47 |    132525    |   152521
        7  | 33:53.47 |  5:09.15 |    152522    |   175711
        8  | 39:02.62 |  4:55.73 |    175712    |   197909
        9  | 43:58.60 |  0:55.42 |    197910    |   202076
       10  | 44:54.27 |  3:42.10 |    202077    |   218736
       11  | 48:36.37 |  2:39.18 |    218737    |   230679
       12  | 51:15.55 |  3:40.27 |    230680    |   247206
       13  | 54:56.07 |  6:19.33 |    247207    |   275664
       14  | 61:15.40 |  3:53.15 |    275665    |   293154
       15  | 65:08.55 |  3:46.57 |    293155    |   310161
       16  | 68:55.37 |  3:51.53 |    310162    |   327539
Track  1
     Filename G:\EAC Temporare\01 Double Blind (Subjective Mix).wav
     Pre-gap length  0:00:02.00
     Peak level 99.6 %
     Track quality 99.9 %
     Test CRC CA299B54
     Copy CRC CA299B54
     Accurately ripped (confidence 3)  [0321A5C0]
     Copy OK
Track  2
     Filename G:\EAC Temporare\02 Subterrain (Cleaner Version).wav
     Peak level 99.1 %
     Track quality 100.0 %
     Test CRC 3790024E
     Copy CRC 3790024E
     Accurately ripped (confidence 3)  [F084E4F0]
     Copy OK
Track  3
     Filename G:\EAC Temporare\03 Remembrane (Nerve Filter Mix).wav
     Peak level 95.6 %
     Track quality 100.0 %
     Test CRC 8153DF09
     Copy CRC 8153DF09
     Accurately ripped (confidence 3)  [1A73867E]
     Copy OK
Track  4
     Filename G:\EAC Temporare\04 Cascade (Subconscious Mix).wav
     Peak level 98.8 %
     Track quality 99.9 %
     Test CRC BFCEE18F
     Copy CRC BFCEE18F
     Accurately ripped (confidence 3)  [E5BE73A5]
     Copy OK
Track  5
     Filename G:\EAC Temporare\05 Sioled (Necromix).wav
     Peak level 90.3 %
     Track quality 99.9 %
     Test CRC 7E43BE81
     Copy CRC 7E43BE81
     Accurately ripped (confidence 3)  [F3FC1C98]
     Copy OK
Track  6
     Filename G:\EAC Temporare\06 Subterranean Screens (Railgun Mix).wav
     Peak level 97.9 %
     Track quality 99.9 %
     Test CRC 2661044D
     Copy CRC 2661044D
     Accurately ripped (confidence 3)  [5D2661E0]
     Copy OK
Track  7
     Filename G:\EAC Temporare\07 Not Your Own (Tensor Terminated Mix).wav
     Peak level 99.4 %
     Track quality 100.0 %
     Test CRC 5EBC4039
     Copy CRC 5EBC4039
     Accurately ripped (confidence 3)  [6BEB0FD3]
     Copy OK
Track  8
     Filename G:\EAC Temporare\08 Scsix (New Mind Mix).wav
     Peak level 98.7 %
     Track quality 100.0 %
     Test CRC 0C2F849A
     Copy CRC 0C2F849A
     Accurately ripped (confidence 3)  [96176C76]
     Copy OK
Track  9
     Filename G:\EAC Temporare\09 Intro (Live At The Fenix In Seattle).wav
     Peak level 78.9 %
     Track quality 100.0 %
     Test CRC 8A909C95
     Copy CRC 8A909C95
     Accurately ripped (confidence 3)  [63BA0D03]
     Copy OK
Track 10
     Filename G:\EAC Temporare\10 Choking On Fate (Live).wav
     Peak level 99.1 %
     Track quality 99.9 %
     Test CRC FEAB526D
     Copy CRC FEAB526D
     Accurately ripped (confidence 3)  [76EACE49]
     Copy OK
Track 11
     Filename G:\EAC Temporare\11 Afekt.wav
     Peak level 97.7 %
     Track quality 100.0 %
     Test CRC D046B25B
     Copy CRC D046B25B
     Accurately ripped (confidence 3)  [3364ADCE]
     Copy OK
Track 12
     Filename G:\EAC Temporare\12 Mammoth.wav
     Peak level 99.8 %
     Track quality 100.0 %
     Test CRC FD774738
     Copy CRC FD774738
     Accurately ripped (confidence 3)  [AE34CD9F]
     Copy OK
Track 13
     Filename G:\EAC Temporare\13 Lattice.wav
     Peak level 99.2 %
     Track quality 100.0 %
     Test CRC 4AB1155C
     Copy CRC 4AB1155C
     Accurately ripped (confidence 3)  [F8725BAD]
     Copy OK
Track 14
     Filename G:\EAC Temporare\14 Concealed Toy.wav
     Peak level 99.9 %
     Track quality 100.0 %
     Test CRC 24AC6630
     Copy CRC 24AC6630
     Accurately ripped (confidence 3)  [42220690]
     Copy OK
Track 15
     Filename G:\EAC Temporare\15 Crashtime (SMP Remix).wav
     Peak level 98.3 %
     Track quality 100.0 %
     Test CRC E7C9989C
     Copy CRC E7C9989C
     Accurately ripped (confidence 3)  [BC588A5D]
     Copy OK
Track 16
     Filename G:\EAC Temporare\16 Identified By Dental Records (Perception Mix).wav
     Peak level 99.9 %
     Track quality 100.0 %
     Test CRC 582DEBA6
     Copy CRC 582DEBA6
     Accurately ripped (confidence 3)  [2953363E]
     Copy OK
All tracks accurately ripped
No errors occurred
End of status report

Зарелизено на rutracker.org

на раздаче ВСЕГДА в нерабочее время (вечер, ночь, выходные), в остальное время как получится
Правила, инструкции, FAQ!!!
Торрент  Добавлен [26 июн 2020, 17:50] Скачать торрент Магнет ссылка
Скачать торрент
[ Размер 19.25 КБ / Просмотров 7 ]

Статус
Проверен 
 
Размер  443.81 МБ
Приватный: Нет (DHT включён)
.torrent скачан  0
 


     Отправить личное сообщение
   
Страница 1 из 1
Показать сообщения за:  Поле сортировки  
Начать новую тему Ответить на тему


Сейчас этот форум просматривают: нет зарегистрированных пользователей и гости: 0


Вы не можете начинать темы
Вы не можете отвечать на сообщения
Вы не можете редактировать свои сообщения
Вы не можете удалять свои сообщения
Вы не можете добавлять вложения

Перейти:  
cron