Начать новую тему Ответить на тему
Статистика раздачи
Размер: 393.97 МБ | Добавлен: 26 июн 2020, 20:23 | Скачали: 0
Сидеров: 0  [0 байт/сек]    Личеров: 0  [0 байт/сек]
Пред. тема | След. тема 

Автор
Сообщение

СообщениеДобавлено: 26 июн 2020, 20:23 

Ответить с цитатой 

Majestic – No Words, No Misunderstandings 1994
Жанр:Abstract, Electro, Experimental
Носитель:CD
Страна-производитель диска (релиза):Germany
Год издания:1994
Издатель (лейбл):Celtic Circle Productions
Номер по каталогу:C.C.P. 017
Аудиокодек:FLAC
Тип рипа:tracks+.cue
Битрейт аудио:lossless
Продолжительность:01:00:55
Источник:SoulSeek
Наличие сканов в содержимом раздачи:Да (Discogs)
Tracklist:
01. Ingress 2:45
02. So Tall 3:37
03. Green 2:27
04. Dead Eyes 3:44
05. Lsd 3:19
06. 20 Sec. 0:54
07. I Feel 3:57
08. Die Kunste 3:45
09. Short Trip 2:40
10. Back From A Star 4:21
11. Garden 3:59
12. Faild 4:45
13. Northern Lights 4:15
14. Statolith 4:47
15. Conspirator 5:52
16. Incorrect Response 5:39
Код:
Exact Audio Copy V1.0 beta 3 from 29. August 2011
EAC extraction logfile from 4. November 2016, 18:15
Majestic / No Words, No Misunderstandings
Used drive  : NECVMWarVMware IDE CDR10   Adapter: 1  ID: 0
Read mode               : Secure
Utilize accurate stream : Yes
Defeat audio cache      : Yes
Make use of C2 pointers : No
Read offset correction                      : 667
Overread into Lead-In and Lead-Out          : No
Fill up missing offset samples with silence : Yes
Delete leading and trailing silent blocks   : No
Null samples used in CRC calculations       : Yes
Used interface                              : Native Win32 interface for Win NT & 2000
Gap handling                                : Appended to previous track
Used output format              : User Defined Encoder
Selected bitrate                : 896 kBit/s
Quality                         : High
Add ID3 tag                     : No
Command line compressor         : C:\Program Files\Exact Audio Copy\Flac\flac.exe
Additional command line options : -T "artist=%artist%" -T "title=%title%" -T "album=%albumtitle%" -T "date=%year%" -T "tracknumber=%tracknr%" -T "genre=%genre%" -5 %source%
TOC of the extracted CD
     Track |   Start  |  Length  | Start sector | End sector
    ---------------------------------------------------------
        1  |  0:00.30 |  2:45.74 |        30    |    12478
        2  |  2:46.29 |  3:37.38 |     12479    |    28791
        3  |  6:23.67 |  2:27.54 |     28792    |    39870
        4  |  8:51.46 |  3:44.14 |     39871    |    56684
        5  | 12:35.60 |  3:19.11 |     56685    |    71620
        6  | 15:54.71 |  0:54.74 |     71621    |    75744
        7  | 16:49.70 |  3:57.38 |     75745    |    93557
        8  | 20:47.33 |  3:45.21 |     93558    |   110453
        9  | 24:32.54 |  2:40.02 |    110454    |   122455
       10  | 27:12.56 |  4:21.74 |    122456    |   142104
       11  | 31:34.55 |  3:59.37 |    142105    |   160066
       12  | 35:34.17 |  4:45.20 |    160067    |   181461
       13  | 40:19.37 |  4:15.64 |    181462    |   200650
       14  | 44:35.26 |  4:47.55 |    200651    |   222230
       15  | 49:23.06 |  5:52.67 |    222231    |   248697
       16  | 55:15.73 |  5:39.55 |    248698    |   274177
Track  1
     Filename Z:\Wrecked Ship\temp\files\Majestic\No Words, No Misunderstandings[CCP 017]  (1994)\Majestic - No Words, No Misunderstandings - 01 - Ingress.wav
     Pre-gap length  0:00:02.30
     Peak level 100.0 %
     Extraction speed 1.5 X
     Track quality 99.9 %
     Copy CRC 46C771E7
     Accurately ripped (confidence 2)  [7B5AD669]  (AR v2)
     Copy OK
Track  2
     Filename Z:\Wrecked Ship\temp\files\Majestic\No Words, No Misunderstandings[CCP 017]  (1994)\Majestic - No Words, No Misunderstandings - 02 - So Tall.wav
     Peak level 99.9 %
     Extraction speed 2.1 X
     Track quality 100.0 %
     Copy CRC E28F0EEA
     Accurately ripped (confidence 2)  [82BF2BC0]  (AR v2)
     Copy OK
Track  3
     Filename Z:\Wrecked Ship\temp\files\Majestic\No Words, No Misunderstandings[CCP 017]  (1994)\Majestic - No Words, No Misunderstandings - 03 - Green.wav
     Peak level 100.0 %
     Extraction speed 1.7 X
     Track quality 99.9 %
     Copy CRC 34361E48
     Accurately ripped (confidence 2)  [E78FDCA3]  (AR v2)
     Copy OK
Track  4
     Filename Z:\Wrecked Ship\temp\files\Majestic\No Words, No Misunderstandings[CCP 017]  (1994)\Majestic - No Words, No Misunderstandings - 04 - Dead Eyes.wav
     Peak level 100.0 %
     Extraction speed 2.3 X
     Track quality 100.0 %
     Copy CRC C49FA839
     Accurately ripped (confidence 1)  [548003FD]  (AR v2)
     Copy OK
Track  5
     Filename Z:\Wrecked Ship\temp\files\Majestic\No Words, No Misunderstandings[CCP 017]  (1994)\Majestic - No Words, No Misunderstandings - 05 - LSD.wav
     Peak level 100.0 %
     Extraction speed 2.4 X
     Track quality 100.0 %
     Copy CRC 1F05EEF7
     Accurately ripped (confidence 2)  [F72041BE]  (AR v2)
     Copy OK
Track  6
     Filename Z:\Wrecked Ship\temp\files\Majestic\No Words, No Misunderstandings[CCP 017]  (1994)\Majestic - No Words, No Misunderstandings - 06 - 20 Sec.wav
     Peak level 100.0 %
     Extraction speed 1.7 X
     Track quality 100.0 %
     Copy CRC 7AD49081
     Accurately ripped (confidence 2)  [77D587DB]  (AR v2)
     Copy OK
Track  7
     Filename Z:\Wrecked Ship\temp\files\Majestic\No Words, No Misunderstandings[CCP 017]  (1994)\Majestic - No Words, No Misunderstandings - 07 - I Feel.wav
     Peak level 100.0 %
     Extraction speed 2.7 X
     Track quality 100.0 %
     Copy CRC F6114AF7
     Accurately ripped (confidence 2)  [F0C2EB81]  (AR v2)
     Copy OK
Track  8
     Filename Z:\Wrecked Ship\temp\files\Majestic\No Words, No Misunderstandings[CCP 017]  (1994)\Majestic - No Words, No Misunderstandings - 08 - Die Kuenste.wav
     Peak level 100.0 %
     Extraction speed 2.8 X
     Track quality 100.0 %
     Copy CRC 1DC13D93
     Accurately ripped (confidence 2)  [AEA53714]  (AR v2)
     Copy OK
Track  9
     Filename Z:\Wrecked Ship\temp\files\Majestic\No Words, No Misunderstandings[CCP 017]  (1994)\Majestic - No Words, No Misunderstandings - 09 - Short Trip.wav
     Peak level 99.9 %
     Extraction speed 2.4 X
     Track quality 99.9 %
     Copy CRC AA1AEC57
     Accurately ripped (confidence 2)  [2477EAA1]  (AR v2)
     Copy OK
Track 10
     Filename Z:\Wrecked Ship\temp\files\Majestic\No Words, No Misunderstandings[CCP 017]  (1994)\Majestic - No Words, No Misunderstandings - 10 - Back From A Star.wav
     Peak level 100.0 %
     Extraction speed 3.1 X
     Track quality 100.0 %
     Copy CRC 72B691C4
     Accurately ripped (confidence 2)  [5DB5100F]  (AR v2)
     Copy OK
Track 11
     Filename Z:\Wrecked Ship\temp\files\Majestic\No Words, No Misunderstandings[CCP 017]  (1994)\Majestic - No Words, No Misunderstandings - 11 - Garden.wav
     Peak level 100.0 %
     Extraction speed 3.3 X
     Track quality 100.0 %
     Copy CRC 0EE59A21
     Accurately ripped (confidence 2)  [4A85BFA8]  (AR v2)
     Copy OK
Track 12
     Filename Z:\Wrecked Ship\temp\files\Majestic\No Words, No Misunderstandings[CCP 017]  (1994)\Majestic - No Words, No Misunderstandings - 12 - Faild.wav
     Peak level 100.0 %
     Extraction speed 3.5 X
     Track quality 100.0 %
     Copy CRC A14C25F0
     Accurately ripped (confidence 2)  [C9656ABA]  (AR v2)
     Copy OK
Track 13
     Filename Z:\Wrecked Ship\temp\files\Majestic\No Words, No Misunderstandings[CCP 017]  (1994)\Majestic - No Words, No Misunderstandings - 13 - Northern Lights.wav
     Peak level 100.0 %
     Extraction speed 3.6 X
     Track quality 100.0 %
     Copy CRC 0B535ED1
     Accurately ripped (confidence 2)  [39895C58]  (AR v2)
     Copy OK
Track 14
     Filename Z:\Wrecked Ship\temp\files\Majestic\No Words, No Misunderstandings[CCP 017]  (1994)\Majestic - No Words, No Misunderstandings - 14 - Statolith.wav
     Peak level 100.0 %
     Extraction speed 3.6 X
     Track quality 100.0 %
     Copy CRC E954E993
     Accurately ripped (confidence 2)  [D70D20CB]  (AR v2)
     Copy OK
Track 15
     Filename Z:\Wrecked Ship\temp\files\Majestic\No Words, No Misunderstandings[CCP 017]  (1994)\Majestic - No Words, No Misunderstandings - 15 - Conspirator.wav
     Peak level 100.0 %
     Extraction speed 3.6 X
     Track quality 99.9 %
     Copy CRC F392A6BF
     Accurately ripped (confidence 2)  [C20F9859]  (AR v2)
     Copy OK
Track 16
     Filename Z:\Wrecked Ship\temp\files\Majestic\No Words, No Misunderstandings[CCP 017]  (1994)\Majestic - No Words, No Misunderstandings - 16 - Incorect Response.wav
     Peak level 100.0 %
     Extraction speed 4.1 X
     Track quality 100.0 %
     Copy CRC 8BE1CC75
     Accurately ripped (confidence 2)  [7E121EEC]  (AR v2)
     Copy OK
All tracks accurately ripped
No errors occurred
End of status report
==== Log checksum 84248D9FF03A7398143498B6F25E080AAC2950845460966ADC376CA7B3EEEA4A ====
Код:
REM GENRE "EBM, Abstract, Electro, Experimental"
REM DATE 1994
REM DISCID EB0E4710
REM COMMENT "ExactAudioCopy v1.0b3"
CATALOG 0000000000000
PERFORMER "Majestic"
TITLE "No Words, No Misunderstandings"
FILE "Majestic - No Words, No Misunderstandings - 1.01 - Ingress.wav" WAVE
  TRACK 01 AUDIO
    TITLE "Ingress"
    PERFORMER "Majestic"
    PREGAP 00:00:30
    INDEX 01 00:00:00
FILE "Majestic - No Words, No Misunderstandings - 1.02 - So Tall.wav" WAVE
  TRACK 02 AUDIO
    TITLE "So Tall"
    PERFORMER "Majestic"
    INDEX 01 00:00:00
FILE "Majestic - No Words, No Misunderstandings - 1.03 - Green.wav" WAVE
  TRACK 03 AUDIO
    TITLE "Green"
    PERFORMER "Majestic"
    INDEX 01 00:00:00
FILE "Majestic - No Words, No Misunderstandings - 1.04 - Dead Eyes.wav" WAVE
  TRACK 04 AUDIO
    TITLE "Dead Eyes"
    PERFORMER "Majestic"
    INDEX 01 00:00:00
FILE "Majestic - No Words, No Misunderstandings - 1.05 - LSD.wav" WAVE
  TRACK 05 AUDIO
    TITLE "LSD"
    PERFORMER "Majestic"
    INDEX 01 00:00:00
FILE "Majestic - No Words, No Misunderstandings - 1.06 - 20 Sec.wav" WAVE
  TRACK 06 AUDIO
    TITLE "20 Sec"
    PERFORMER "Majestic"
    INDEX 01 00:00:00
FILE "Majestic - No Words, No Misunderstandings - 1.07 - I Feel.wav" WAVE
  TRACK 07 AUDIO
    TITLE "I Feel"
    PERFORMER "Majestic"
    INDEX 01 00:00:00
FILE "Majestic - No Words, No Misunderstandings - 1.08 - Die Kuenste.wav" WAVE
  TRACK 08 AUDIO
    TITLE "Die Kuenste"
    PERFORMER "Majestic"
    INDEX 01 00:00:00
FILE "Majestic - No Words, No Misunderstandings - 1.09 - Short Trip.wav" WAVE
  TRACK 09 AUDIO
    TITLE "Short Trip"
    PERFORMER "Majestic"
    INDEX 01 00:00:00
FILE "Majestic - No Words, No Misunderstandings - 1.10 - Back From A Star.wav" WAVE
  TRACK 10 AUDIO
    TITLE "Back From A Star"
    PERFORMER "Majestic"
    INDEX 01 00:00:00
FILE "Majestic - No Words, No Misunderstandings - 1.11 - Garden.wav" WAVE
  TRACK 11 AUDIO
    TITLE "Garden"
    PERFORMER "Majestic"
    INDEX 01 00:00:00
FILE "Majestic - No Words, No Misunderstandings - 1.12 - Faild.wav" WAVE
  TRACK 12 AUDIO
    TITLE "Faild"
    PERFORMER "Majestic"
    INDEX 01 00:00:00
FILE "Majestic - No Words, No Misunderstandings - 1.13 - Northern Lights.wav" WAVE
  TRACK 13 AUDIO
    TITLE "Northern Lights"
    PERFORMER "Majestic"
    INDEX 01 00:00:00
FILE "Majestic - No Words, No Misunderstandings - 1.14 - Statolith.wav" WAVE
  TRACK 14 AUDIO
    TITLE "Statolith"
    PERFORMER "Majestic"
    INDEX 01 00:00:00
FILE "Majestic - No Words, No Misunderstandings - 1.15 - Conspirator.wav" WAVE
  TRACK 15 AUDIO
    TITLE "Conspirator"
    PERFORMER "Majestic"
    INDEX 01 00:00:00
FILE "Majestic - No Words, No Misunderstandings - 1.16 - Incorect Response.wav" WAVE
  TRACK 16 AUDIO
    TITLE "Incorect Response"
    PERFORMER "Majestic"
    FLAGS DCP
    INDEX 01 00:00:00
НЕ ЗАБЫВАЕМ ГОВОРИТЬ, СПАСИБО!
Правила, инструкции, FAQ!!!
Торрент  Добавлен [26 июн 2020, 20:23] Скачать торрент Магнет ссылка
Скачать торрент
[ Размер 18.32 КБ / Просмотров 11 ]

Статус
Проверен 
 
Размер  393.97 МБ
Приватный: Нет (DHT включён)
.torrent скачан  0
 


     Отправить личное сообщение
   
Страница 1 из 1
Показать сообщения за:  Поле сортировки  
Начать новую тему Ответить на тему


Сейчас этот форум просматривают: нет зарегистрированных пользователей и гости: 0


Вы не можете начинать темы
Вы не можете отвечать на сообщения
Вы не можете редактировать свои сообщения
Вы не можете удалять свои сообщения
Вы не можете добавлять вложения

Перейти:  
cron